Keatas ?
Download: Summertime Sadness - Lana Del Rey (fingerstyle guitar cover by Peter Gergely).mp3

Скачать через торрент [VIDEO] Идеальный голос 2 Pitch Perfect 2 бесплатно русская версия torrent активатор

Статистика раздачи
Размер:  1.96 GB   |    Зарегистрирован:  2 года 3 месяца   |    .torrent скачан:  17 раз   |   
Раздают:  1  
   
загрузка...
 
Автор Сообщение

Galfimbul

avatar Galfimbul


Идеальный голос 2 / Pitch Perfect 2«Самые крутые девчонки возвращаются»
Год выпуска: 2015
Оригинальное название: Pitch Perfect 2
Страна: США
Жанр: комедия, музыка
Возраст: 16+

Режиссер: Элизабет Бэнкс

В ролях: Анна Кендрик, Ребел Уилсон, Хейли Стайнфелд, Бриттани Сноу, Скайлар Эстин, Адам Дивайн, Кэти Сагал, Анна Кэмп, Бен Платт, Алексис Нэп, Хана Мэй Ли, Эстер Дин, Крисси Фит, Биргитта Йорт Сёренсен, Флула Борг, Келли Джакл, Шелли Регнер

Описание: Самые крутые девчонки возвращаются! Теперь у них все по-взрослому: ремиксы — моднее, каблуки — выше, юбки — короче. Но идеальный голос всегда на месте.

Продолжительность: 01:54:46
Перевод: Дублированный [Лицензия]
Оригинальная дорожка: нет

Автор рипа:

Качество видео: BDRip Исходник: Blu-Ray Remux (1080p) Формат: mp4
Видео кодек: MPEG-4 AVC Аудио кодек: AAC
Видео: 1280x696 at 23.976 fps, AVC at 2 304 kbps avg, 0.108 bit/pixel
Аудио №1 Rus: 48.0 KHz, AAC, 2 ch, 128.0 Kbps
Субтитры: нет
Навигация по главам: нет
GeneralComplete name : E:\Idealnyj_golos_2.2015_KinoGadget.mp4Format : MPEG-4Format profile : Base MediaCodec ID : isomFile size : 1.96 GiBDuration : 1h 54mnOverall bit rate mode : VariableOverall bit rate : 2 439 KbpsMovie name : Идеальный голос 2Performer : Элизабет БэнксGenre : Comedy, MusicContentType : Short FilmRecorded date : 2015Encoded date : UTC 2016-01-09 19:00:14Tagged date : UTC 2016-01-09 19:17:15Writing application : MkvToMp4 version: 0.224 (x32)Cover : YesLongDescription : Самые крутые девчонки возвращаются! Теперь у них все по-взрослому: ремиксы — моднее, каблуки — выше, юбки — короче. Но идеальный голос всегда на месте.HDVideo : YesContentRating : mpaa|PG-13|300|

VideoID : 1Format : AVCFormat/Info : Advanced Video CodecFormat profile : [email protected] settings, CABAC : YesFormat settings, ReFrames : 8 framesCodec ID : avc1Codec ID/Info : Advanced Video CodingDuration : 1h 54mnBit rate : 2 304 KbpsMaximum bit rate : 17.9 MbpsWidth : 1 280 pixelsHeight : 696 pixelsDisplay aspect ratio : 1.85:1Frame rate mode : ConstantFrame rate : 23.976 fpsColor space : YUVChroma subsampling : 4:2:0Bit depth : 8 bitsScan type : ProgressiveBits/(Pixel*Frame) : 0.108Stream size : 1.85 GiB (94%)Writing library : x264 core 146 r2538 121396cEncoding settings : cabac=1 / ref=8 / deblock=1:0:0 / analyse=0x3:0x133 / me=umh / subme=9 / psy=1 / psy_rd=1.00:0.00 / mixed_ref=1 / me_range=16 / chroma_me=1 / trellis=2 / 8x8dct=1 / cqm=0 / deadzone=21,11 / fast_pskip=1 / chroma_qp_offset=-2 / threads=3 / lookahead_threads=1 / sliced_threads=0 / nr=0 / decimate=1 / interlaced=0 / bluray_compat=0 / constrained_intra=0 / bframes=3 / b_pyramid=2 / b_adapt=2 / b_bias=0 / direct=3 / weightb=1 / open_gop=0 / weightp=2 / keyint=240 / keyint_min=23 / scenecut=40 / intra_refresh=0 / rc_lookahead=60 / rc=2pass / mbtree=1 / bitrate=2304 / ratetol=1.0 / qcomp=0.60 / qpmin=0 / qpmax=69 / qpstep=4 / cplxblur=20.0 / qblur=0.5 / vbv_maxrate=62500 / vbv_bufsize=78125 / nal_hrd=none / filler=0 / ip_ratio=1.40 / aq=1:1.00Language : EnglishEncoded date : UTC 2016-01-09 19:00:14Tagged date : UTC 2016-01-09 19:07:49

AudioID : 2Format : AACFormat/Info : Advanced Audio CodecFormat profile : LCCodec ID : 40Duration : 1h 54mnBit rate mode : VariableBit rate : 128 KbpsMaximum bit rate : 135 KbpsChannel count : 2 channelsChannel positions : Front: L RSampling rate : 48.0 KHzCompression mode : LossyStream size : 105 MiB (5%)Language : RussianEncoded date : UTC 2016-01-09 19:06:01Tagged date : UTC 2016-01-09 19:07:49


Трекер:  [ 09-Янв-2016 22:30 ]

  

Скачать .torrent

Размер .torrent файла 20 KB


Размер: 1.96 GB
Хэш (hash) релиза: af75932bcb8df51c471514effae2a332d9eb5b29

Еще никто не оставлял запись к записи скачать торрент [VIDEO] Идеальный голос 2 Pitch Perfect 2 . Будь первым!

!Обратная связь