Il y a quelqu'un dans la maison... | Heiter bis tödlich: Akte Ex | • On My Block 7.5

Скачать через торрент [VIDEO] Мстители The Avengers бесплатно русская версия torrent активатор

Статистика раздачи
Размер:  2.32 GB   |    Зарегистрирован:  2 года 6 месяцев   |    .torrent скачан:  60 раз   |   
Раздают:  1  
   
загрузка...
 
Автор Сообщение

Galfimbul

avatar Galfimbul


Мстители / The Avengers«Avengers ASSEMBLE!»
Год выпуска: 2012
Оригинальное название: The Avengers
Страна: США
Жанр: фантастика, фэнтези, боевик, приключения
Возраст: 12+

Режиссер: Джосс Уидон

В ролях: Роберт Дауни мл., Крис Эванс, Марк Руффало, Крис Хемсворт, Скарлетт Йоханссон, Джереми Реннер, Том Хиддлстон, Сэмюэл Л. Джексон, Кларк Грегг, Коби Смолдерс, Стеллан Скарсгард, Гвинет Пэлтроу, Пол Беттани, Алексис Денисоф, Тина Бенко, Ежи Сколимовский, Кирилл Никифоров, Джефф Вульф, М’лаа Каур Синх, Рашми Рустаги, Пауэрс Бут, Дженни Агаттер, Артур Дарбинян, Дональд Ли, Ивэн Коул, Алисия Сикстос, Джесси Гарсиа, Максимилианно Эрнандез, Дитер Рисл

Описание: Локи, сводный брат Тора, возвращается, и в этот раз он не один. Земля на грани порабощения, и только лучшие из лучших могут спасти человечество.

Ник Фьюри, глава международной организации Щ. И. Т., собирает выдающихся поборников справедливости и добра, чтобы отразить атаку. Под предводительством Капитана Америки Железный Человек, Тор, Невероятный Халк, Соколиный глаз и Чёрная Вдова вступают в войну с захватчиком.

Продолжительность: 02:22:54
Перевод: Дублированный
Оригинальная дорожка: нет

Автор рипа:

Качество видео: BDRip Исходник: Blu-Ray Remux (1080p) Формат: mp4
Видео кодек: MPEG-4 AVC Аудио кодек: AAC
Видео: 1280x720 at 23.976 fps, AVC at 2 192 kbps avg, 0.099 bit/pixel
Аудио №1 Rus: 48.0 KHz, AAC, 2 ch, 128.0 Kbps
Субтитры: нет
Навигация по главам: нет
[url=...5142941][VIDEO] Человек-муравей / Ant-Man (Пейтон Рид / Пейтон Рид) [2015, фантастика, боевик, комедия, приключения, BDRip] [MP4, 1280x][/url]
GeneralComplete name : E:\Mstiteli.2012_KinoGadget.mp4Format : MPEG-4Format profile : Base MediaCodec ID : isomFile size : 2.32 GiBDuration : 2h 22mnOverall bit rate mode : VariableOverall bit rate : 2 328 KbpsMovie name : МстителиPerformer : Джосс УидонGenre : Action, AdventureContentType : Short FilmRecorded date : 2012Encoded date : UTC 2016-01-09 12:23:53Tagged date : UTC 2016-01-09 12:29:21Writing application : MkvToMp4 [www.mkvtomp4.ru] version: 0.224 (x32)Cover : YesLongDescription : Локи, сводный брат Тора, возвращается, и в этот раз он не один. Земля на грани порабощения, и только лучшие из лучших могут спасти человечество. / / Ник Фьюри, глава международной организации Щ. И. Т., собирает выдающихся поборников справедливости и добра, чтобы отразить атаку. Под предводительством Капитана Америки Железный Человек, Тор, Невероятный Халк, Соколиный глаз и Чёрная Вдова вступают в войну с захватчиком.HDVideo : YesContentRating : mpaa|PG-13|300|

VideoID : 1Format : AVCFormat/Info : Advanced Video CodecFormat profile : [email protected] settings, CABAC : YesFormat settings, ReFrames : 8 framesCodec ID : avc1Codec ID/Info : Advanced Video CodingDuration : 2h 22mnBit rate : 2 192 KbpsMaximum bit rate : 12.8 MbpsWidth : 1 280 pixelsHeight : 720 pixelsDisplay aspect ratio : 16:9Frame rate mode : ConstantFrame rate : 23.976 fpsColor space : YUVChroma subsampling : 4:2:0Bit depth : 8 bitsScan type : ProgressiveBits/(Pixel*Frame) : 0.099Stream size : 2.19 GiB (94%)Writing library : x264 core 130 r2273 b3065e6Encoding settings : cabac=1 / ref=8 / deblock=1:-1:-1 / analyse=0x3:0x133 / me=umh / subme=7 / psy=1 / psy_rd=1.00:0.10 / mixed_ref=1 / me_range=16 / chroma_me=1 / trellis=2 / 8x8dct=1 / cqm=0 / deadzone=21,11 / fast_pskip=0 / chroma_qp_offset=-3 / threads=3 / lookahead_threads=1 / sliced_threads=0 / nr=0 / decimate=1 / interlaced=0 / bluray_compat=0 / constrained_intra=0 / bframes=3 / b_pyramid=2 / b_adapt=2 / b_bias=0 / direct=3 / weightb=1 / open_gop=0 / weightp=2 / keyint=250 / keyint_min=23 / scenecut=40 / intra_refresh=0 / rc_lookahead=50 / rc=crf / mbtree=1 / crf=21.0 / qcomp=0.60 / qpmin=0 / qpmax=69 / qpstep=4 / ip_ratio=1.40 / aq=1:1.00Language : EnglishEncoded date : UTC 2016-01-09 12:23:53Tagged date : UTC 2016-01-09 12:26:07

AudioID : 2Format : AACFormat/Info : Advanced Audio CodecFormat profile : LCCodec ID : 40Duration : 2h 22mnBit rate mode : VariableBit rate : 128 KbpsMaximum bit rate : 135 KbpsChannel count : 2 channelsChannel positions : Front: L RSampling rate : 48.0 KHzCompression mode : LossyStream size : 131 MiB (5%)Language : RussianEncoded date : UTC 2016-01-09 12:25:42Tagged date : UTC 2016-01-09 12:26:07
[url=...39840292] [/url]

Трекер:  [ 09-Янв-2016 22:30 ]

  

Скачать .torrent

Размер .torrent файла 12 KB


Размер: 2.32 GB
Хэш (hash) релиза: 32470d53a56bf9452244191c51fe7f9bdfb13563

Торренты, похожие на [VIDEO] Мстители The Avengers скачать торрент

Форум Название Автор Размер S L Добавлен
Видео (Фильмы/Клипы) ·· [VIDEO] Мстители / The Avengers (Джосс Уидон / Joss Whedon) [2012, США, фантастика, боевик, триллер, HDRip][MP4, 800x] Galfimbul 16466993971.53 GB 0 0 1437991719

13:08

27-Июл-15

Еще никто не оставлял запись к записи скачать торрент [VIDEO] Мстители The Avengers . Будь первым!

!Обратная связь