Навигация для Android | Yume Oukoku to Nemureru 100 Nin no Ouji-sama | The Revolutionary (2012)

Скачать через торрент [VIDEO] Уцелевший Lone Survivor бесплатно русская версия torrent активатор

Статистика раздачи
Размер:  1.99 GB   |    Зарегистрирован:  2 года 6 месяцев   |    .torrent скачан:  35 раз   |   
Раздают:  1  
   
загрузка...
 
Автор Сообщение

Galfimbul

avatar Galfimbul


Уцелевший / Lone Survivor«Live to Tell the Story»
Год выпуска: 2013
Оригинальное название: Lone Survivor
Страна: США
Жанр: военный, боевик, драма
Возраст: 16+

Режиссер: Питер Берг

В ролях: Марк Уолберг, Тейлор Китч, Эмиль Хирш, Бен Фостер, Юсуф Азами, Али Сулиман, Эрик Бана, Александр Людвиг, Рич Тинг, Дэн Билзериан

Описание: Афганистан, 2005 год. Команда американских спецназовцев получает задание обезвредить известного лидера талибов Ахмада Шаха. Попав в ловушку, солдаты принимают неравный кровопролитный бой, и все они погибают героями. Все, кроме одного. Для уцелевшего Маркуса Латтрела бой только начинается: он любой ценой должен выжить и пробраться к «своим». Когда почти всё потеряно, ему решается помочь Гулаб — мирный человек, ненавидящий войну.

Продолжительность: 02:01:21
Перевод: Дублированный [лицензия]
Оригинальная дорожка: нет

Автор рипа:

Качество видео: BDRip Исходник: Blu-Ray Remux (1080p) Формат: mp4
Видео кодек: MPEG-4 AVC Аудио кодек: AAC
Видео: 1280x536 at 23.976 fps, AVC at 2 209 kbps avg, 0.134 bit/pixel
Аудио №1 Rus: 48.0 KHz, AAC, 2 ch, 128.0 Kbps
Субтитры: нет
Навигация по главам: нет
GeneralComplete name : E:\Utcelevshy.2013_KinoGadget.mp4Format : MPEG-4Format profile : Base MediaCodec ID : isomFile size : 1.99 GiBDuration : 2h 1mnOverall bit rate mode : VariableOverall bit rate : 2 346 KbpsMovie name : УцелевшийGenre : боевик & драма & триллер & военныйContentType : Short FilmDescription : Афганистан, 2005 год. Команда американских спецназовцев получает задание обезвредить известного лидера талибов Ахмада Шаха. Попав в ловушку, солдаты принимают неравный кровопролитный бой, и все они погибают героями. Все, кроме одного. Для уцелевшегоRecorded date : 2013-12-24Encoded date : UTC 2016-01-09 12:55:02Tagged date : UTC 2016-01-09 13:00:18Writing application : MkvToMp4 [www.mkvtomp4.ru] version: 0.224 (x32)Cover : YesTitle/Sort : Lone SurvivorLongDescription : Афганистан, 2005 год. Команда американских спецназовцев получает задание обезвредить известного лидера талибов Ахмада Шаха. Попав в ловушку, солдаты принимают неравный кровопролитный бой, и все они погибают героями. Все, кроме одного. Для уцелевшего Маркуса Латтрела бой только начинается: он любой ценой должен выжить и пробраться к «своим». Когда почти всё потеряно, ему решается помочь Гулаб — мирный человек, ненавидящий войну.HDVideo : YesVendor : Apple:vendor_id:2013-tt1091191ContentRating : mpaa|R|400|

VideoID : 1Format : AVCFormat/Info : Advanced Video CodecFormat profile : [email protected] settings, CABAC : YesFormat settings, ReFrames : 8 framesCodec ID : avc1Codec ID/Info : Advanced Video CodingDuration : 2h 1mnBit rate : 2 209 KbpsMaximum bit rate : 12.1 MbpsWidth : 1 280 pixelsHeight : 536 pixelsDisplay aspect ratio : 2.40:1Frame rate mode : ConstantFrame rate : 23.976 fpsColor space : YUVChroma subsampling : 4:2:0Bit depth : 8 bitsScan type : ProgressiveBits/(Pixel*Frame) : 0.134Stream size : 1.87 GiB (94%)Writing library : x264 core 130 r2273 b3065e6Encoding settings : cabac=1 / ref=8 / deblock=1:-1:-1 / analyse=0x3:0x133 / me=umh / subme=7 / psy=1 / psy_rd=1.00:0.10 / mixed_ref=1 / me_range=16 / chroma_me=1 / trellis=2 / 8x8dct=1 / cqm=0 / deadzone=21,11 / fast_pskip=0 / chroma_qp_offset=-3 / threads=3 / lookahead_threads=1 / sliced_threads=0 / nr=0 / decimate=1 / interlaced=0 / bluray_compat=0 / constrained_intra=0 / bframes=3 / b_pyramid=2 / b_adapt=2 / b_bias=0 / direct=3 / weightb=1 / open_gop=0 / weightp=2 / keyint=250 / keyint_min=23 / scenecut=40 / intra_refresh=0 / rc_lookahead=50 / rc=crf / mbtree=1 / crf=21.0 / qcomp=0.60 / qpmin=0 / qpmax=69 / qpstep=4 / ip_ratio=1.40 / aq=1:1.00Language : EnglishEncoded date : UTC 2016-01-09 12:55:02Tagged date : UTC 2016-01-09 12:58:08

AudioID : 2Format : AACFormat/Info : Advanced Audio CodecFormat profile : LCCodec ID : 40Duration : 2h 1mnBit rate mode : VariableBit rate : 128 KbpsMaximum bit rate : 135 KbpsChannel count : 2 channelsChannel positions : Front: L RSampling rate : 48.0 KHzCompression mode : LossyStream size : 111 MiB (5%)Language : RussianEncoded date : UTC 2016-01-09 12:57:42Tagged date : UTC 2016-01-09 12:58:08
<a href="http://s018.radikal.ru/i523/1601/08/38340фс1e63a91.jpg" class="postLink"> </a>
[url=...39840292] [/url]

Трекер:  [ 09-Янв-2016 22:30 ]

  

Скачать .torrent

Размер .torrent файла 20 KB


Размер: 1.99 GB
Хэш (hash) релиза: 24cdf5a1484bb7b87ba8475f88b49854e885b8d6

Еще никто не оставлял запись к записи скачать торрент [VIDEO] Уцелевший Lone Survivor . Будь первым!

!Обратная связь