Life is Strange SQUARE ENIX Ltd Segera datang | Скачать XAPK | Télécharger Part 13

Скачать через торрент [VIDEO] Кровная месть Vendetta бесплатно русская версия torrent активатор

Статистика раздачи
Размер:  1.34 GB   |    Зарегистрирован:  2 года 6 месяцев   |    .torrent скачан:  14 раз   |   
Раздают:  1  
   
загрузка...
 
Автор Сообщение

Galfimbul

avatar Galfimbul


Кровная месть / Vendetta«Get Ready for Hell in a Cell»
Год выпуска: 2015
Оригинальное название: Vendetta
Страна: США
Жанр: боевик, драма
Возраст: 18+

Режиссер: Джен Соска, Сильвия Соска

В ролях: Дин Кэйн, Пол Уайт, Майкл Эклунд, Бен Холлингсворт, Адриан Холмс, Мэттью МакКоулл, Кира Загорски, Алекс Паунович, Джонатан Уолкер, Ди Джей Джексон

Описание: Мейсон — частный детектив, который в поисках возмездия переступает черту закона. Ярость, безысходность и жажда отомстить за близкого человека превращают его из полицейского в преступника. Он намеренно садится в тюрьму, чтобы добраться к убийце своей жени, который отбывает там наказание.

Но попав за решетку, он становится настоящей мишенью для заключенных, ведь многие хотят отомстить бывшему стражу порядка, который когда-то упрятал их за решетку. Мейсон оказывается в очень непростой и опасной ситуации, ведь он хочет отомстить лишь одному, в то время, как очень многие желают поквитаться с ним.

Продолжительность: 01:30:09
Перевод: Любительский одноголосый [datynet]
Оригинальная дорожка: нет

Автор рипа:

Качество видео: BDRip Исходник: Blu-Ray Remux (1080p) Формат: mp4
Видео кодек: MPEG-4 AVC Аудио кодек: AAC
Видео: 1280x720 at 23.976 fps, AVC at 1 986 kbps avg, 0.090 bit/pixel
Аудио №1 Rus: 48.0 KHz, AAC, 2 ch, 128.0 Kbps
Субтитры: нет
Навигация по главам: нет
GeneralComplete name : E:\Krovnaya_mest.2015_KinoGadget.mp4Format : MPEG-4Format profile : Base MediaCodec ID : isomFile size : 1.34 GiBDuration : 1h 30mnOverall bit rate mode : VariableOverall bit rate : 2 123 KbpsMovie name : Кровная местьPerformer : Джен Соска, Сильвия СоскаGenre : Action, DramaContentType : Short FilmRecorded date : 2015Encoded date : UTC 2016-01-09 11:43:34Tagged date : UTC 2016-01-09 11:49:02Writing application : MkvToMp4 [www.mkvtomp4.ru] version: 0.224 (x32)Cover : YesLongDescription : Мейсон — частный детектив, который в поисках возмездия переступает черту закона. Ярость, безысходность и жажда отомстить за близкого человека превращают его из полицейского в преступника. Он намеренно садится в тюрьму, чтобы добраться к убийце своей жени, который отбывает там наказание. / / Но попав за решетку, он становится настоящей мишенью для заключенных, ведь многие хотят отомстить бывшему стражу порядка, который когда-то упрятал их за решетку. Мейсон оказывается в очень непростой и опасной ситуации, ведь он хочет отомстить лишь одному, в то время, как очень многие желают поквитаться с ним.HDVideo : YesContentRating : mpaa|R|400|

VideoID : 1Format : AVCFormat/Info : Advanced Video CodecFormat profile : [email protected] settings, CABAC : YesFormat settings, ReFrames : 8 framesCodec ID : avc1Codec ID/Info : Advanced Video CodingDuration : 1h 30mnBit rate : 1 986 KbpsMaximum bit rate : 9 101 KbpsWidth : 1 280 pixelsHeight : 720 pixelsDisplay aspect ratio : 16:9Frame rate mode : ConstantFrame rate : 23.976 fpsColor space : YUVChroma subsampling : 4:2:0Bit depth : 8 bitsScan type : ProgressiveBits/(Pixel*Frame) : 0.090Stream size : 1.25 GiB (94%)Writing library : x264 core 130 r2273 b3065e6Encoding settings : cabac=1 / ref=8 / deblock=1:-1:-1 / analyse=0x3:0x133 / me=umh / subme=7 / psy=1 / psy_rd=1.00:0.10 / mixed_ref=1 / me_range=16 / chroma_me=1 / trellis=2 / 8x8dct=1 / cqm=0 / deadzone=21,11 / fast_pskip=0 / chroma_qp_offset=-3 / threads=3 / lookahead_threads=1 / sliced_threads=0 / nr=0 / decimate=1 / interlaced=0 / bluray_compat=0 / constrained_intra=0 / bframes=3 / b_pyramid=2 / b_adapt=2 / b_bias=0 / direct=3 / weightb=1 / open_gop=0 / weightp=2 / keyint=250 / keyint_min=23 / scenecut=40 / intra_refresh=0 / rc_lookahead=50 / rc=crf / mbtree=1 / crf=21.0 / qcomp=0.60 / qpmin=0 / qpmax=69 / qpstep=4 / ip_ratio=1.40 / aq=1:1.00Language : EnglishEncoded date : UTC 2016-01-09 11:43:34Tagged date : UTC 2016-01-09 11:46:38

AudioID : 2Format : AACFormat/Info : Advanced Audio CodecFormat profile : LCCodec ID : 40Duration : 1h 30mnBit rate mode : VariableBit rate : 128 KbpsMaximum bit rate : 135 KbpsChannel count : 2 channelsChannel positions : Front: L RSampling rate : 48.0 KHzCompression mode : LossyStream size : 82.5 MiB (6%)Language : RussianEncoded date : UTC 2016-01-09 11:45:40Tagged date : UTC 2016-01-09 11:46:38
[url=...39840292] [/url]

Трекер:  [ 09-Янв-2016 22:00 ]

  

Скачать .torrent

Размер .torrent файла 14 KB


Размер: 1.34 GB
Хэш (hash) релиза: 0916e88b57fbdefeef5154bd262cfbb5dd9baa4c

Еще никто не оставлял запись к записи скачать торрент [VIDEO] Кровная месть Vendetta . Будь первым!

!Обратная связь