Beelzebub: vol.22 chapter 240.5 : Side Story 5: Love Blooms in The Season of Partings | S.2 Ep.10 8.2 Westworld (2016) | Temporada 2 - Episodio 6

Скачать через торрент [VIDEO] Ночная бригада The Night Crew бесплатно русская версия torrent активатор

Статистика раздачи
Размер:  1.57 GB   |    Зарегистрирован:  2 года 6 месяцев   |    .torrent скачан:  13 раз   |   
Раздают:  1  
   
загрузка...
 
Автор Сообщение

Galfimbul

avatar Galfimbul


Ночная бригада / The Night Crew

Год выпуска: 2015
Оригинальное название: The Night Crew
Страна: США
Жанр: боевик, триллер
Возраст: 18+

Режиссер: Кристиан Сесма

В ролях: Дэнни Трехо, Джейсон Мьюз, Чести Бальестерос, Люк Госс, Букем Вудбайн, Кристин Нгуйен, Жаклин Лорд, Бруна Рубио, Роберто «Санс» Санчес, Лусиана Фолхебер

Описание: Команда безбашенных искателей приключений пытается выжить ночью в мотеле посреди пустыни, обороняясь от орды жестоких убийц.

Продолжительность: 01:28:38
Перевод: Профессиональный многоголосый [iTunes]
Оригинальная дорожка: нет

Автор рипа:

Качество видео: BDRip Исходник: Blu-Ray Remux (1080p) Формат: mp4
Видео кодек: MPEG-4 AVC Аудио кодек: AAC
Видео: 1280x720 at 25.000 fps, AVC at 2 399 kbps avg, 0.104 bit/pixel
Аудио №1 Rus: 48.0 KHz, AAC, 2 ch, 128.0 Kbps
Субтитры: нет
Навигация по главам: нет
GeneralComplete name : E:\Nochnaya_brigada.2015_KinoGadget.mp4Format : MPEG-4Format profile : Base MediaCodec ID : isomFile size : 1.57 GiBDuration : 1h 28mnOverall bit rate mode : VariableOverall bit rate : 2 536 KbpsMovie name : Ночная бригадаPerformer : Кристиан СесмаGenre : Action, ThrillerContentType : Short FilmRecorded date : 2015Encoded date : UTC 2016-01-09 12:02:04Tagged date : UTC 2016-01-09 12:04:39Writing application : MkvToMp4 [www.mkvtomp4.ru] version: 0.224 (x32)Cover : YesLongDescription : Команда безбашенных искателей приключений пытается выжить ночью в мотеле посреди пустыни, обороняясь от орды жестоких убийц.HDVideo : Yes

VideoID : 1Format : AVCFormat/Info : Advanced Video CodecFormat profile : [email protected] settings, CABAC : YesFormat settings, ReFrames : 8 framesCodec ID : avc1Codec ID/Info : Advanced Video CodingDuration : 1h 28mnBit rate : 2 399 KbpsMaximum bit rate : 28.2 MbpsWidth : 1 280 pixelsHeight : 720 pixelsDisplay aspect ratio : 16:9Frame rate mode : ConstantFrame rate : 25.000 fpsColor space : YUVChroma subsampling : 4:2:0Bit depth : 8 bitsScan type : ProgressiveBits/(Pixel*Frame) : 0.104Stream size : 1.49 GiB (95%)Writing library : x264 core 146 r2538 121396cEncoding settings : cabac=1 / ref=8 / deblock=1:0:0 / analyse=0x3:0x133 / me=umh / subme=9 / psy=1 / psy_rd=1.00:0.00 / mixed_ref=1 / me_range=16 / chroma_me=1 / trellis=2 / 8x8dct=1 / cqm=0 / deadzone=21,11 / fast_pskip=1 / chroma_qp_offset=-2 / threads=3 / lookahead_threads=1 / sliced_threads=0 / nr=0 / decimate=1 / interlaced=0 / bluray_compat=0 / constrained_intra=0 / bframes=3 / b_pyramid=2 / b_adapt=2 / b_bias=0 / direct=3 / weightb=1 / open_gop=0 / weightp=2 / keyint=250 / keyint_min=25 / scenecut=40 / intra_refresh=0 / rc_lookahead=60 / rc=crf / mbtree=1 / crf=21.0 / qcomp=0.60 / qpmin=0 / qpmax=69 / qpstep=4 / ip_ratio=1.40 / aq=1:1.00Language : EnglishEncoded date : UTC 2016-01-09 12:02:04Tagged date : UTC 2016-01-09 12:03:01

AudioID : 2Format : AACFormat/Info : Advanced Audio CodecFormat profile : LCCodec ID : 40Duration : 1h 28mnBit rate mode : VariableBit rate : 128 KbpsMaximum bit rate : 135 KbpsChannel count : 2 channelsChannel positions : Front: L RSampling rate : 48.0 KHzCompression mode : LossyStream size : 81.2 MiB (5%)Language : RussianEncoded date : UTC 2016-01-09 12:02:51Tagged date : UTC 2016-01-09 12:03:01
[url=...39840292] [/url]

Трекер:  [ 09-Янв-2016 22:00 ]

  

Скачать .torrent

Размер .torrent файла 16 KB


Размер: 1.57 GB
Хэш (hash) релиза: 32811ad5c79afb530d67aefed3283b9abd606eed

Торренты, похожие на [VIDEO] Ночная бригада The Night Crew скачать торрент

Форум Название Автор Размер S L Добавлен
Видео (Фильмы/Клипы) ·· [VIDEO] Ночная бригада / The Night Crew (Кристиан Сесма / Christian Sesma) [2015, США, боевик, триллер, HDRip][MP4, 480x] MVO iTunes Galfimbul 427466174408 MB 0 0 1440570571

09:29

26-Авг-15

Еще никто не оставлял запись к записи скачать торрент [VIDEO] Ночная бригада The Night Crew . Будь первым!

!Обратная связь