Wild Card (2015)-Jason Statam-1080p-H264-AC 3 (DTS 5.1) Remastered nickarad
Cuticle Detective Inaba Sub Ita Streaming & Download

Скачать через торрент [VIDEO] Вий бесплатно русская версия torrent активатор

Статистика раздачи
Размер:  2.81 GB   |    Зарегистрирован:  2 года 3 месяца   |    .torrent скачан:  31 раз   |   
Раздают:  1  
   
загрузка...
 
Автор Сообщение

Galfimbul

avatar Galfimbul


Вий«Не бойся...»
Год выпуска: 2014
Страна: Россия, Украина, Германия, Великобритания, Чехия
Жанр: фэнтези, триллер, приключения
Возраст: 12+

Режиссер: Олег Степченко

В ролях: Джейсон Флеминг, Алексей Чадов, Агния Дитковските, Андрей Смоляков, Игорь Жижикин, Олег Тактаров, Валерий Золотухин, Нина Русланова, Юрий Цурило, Александр Яковлев

Описание: Начало XVIII века. Картограф Джонатан Грин совершает научное путешествие из Европы на Восток. Проследовав через Трансильванию и преодолев Карпатские горы, он попадает в затерянную среди непроходимых лесов деревушку. Только воля случая и густой туман могли занести его в это проклятое место. Народ, живущий здесь, не похож ни на один доселе виданный путешественником. Эти люди, оградив себя от остального мира глубоким рвом, наивно верят, что смогут уберечься от нечисти, не понимая, что она уже давно поселилась в их душах и только ждёт случая, чтобы вырваться наружу. Даже в страшном сне учёный-материалист не предполагал, что здесь ему уготована встреча с верным слугой дьявола.

Продолжительность: 02:10:12
Перевод: Оригинал (русский)
Оригинальная дорожка: нет

Автор рипа:

Качество видео: BDRip Исходник: Blu-Ray Remux (1080p) Формат: mp4
Видео кодек: MPEG-4 AVC Аудио кодек: AAC
Видео: 1266x720 at 23.976 fps, AVC at 2 955 kbps avg, 0.135 bit/pixel
Аудио №1 Rus: 48.0 KHz, AAC, 2 ch, 128.0 Kbps
Субтитры: нет
Навигация по главам: нет
GeneralComplete name : E:\Viy.2014_KinoGadget.mp4Format : MPEG-4Format profile : Base MediaCodec ID : isomFile size : 2.81 GiBDuration : 2h 10mnOverall bit rate mode : VariableOverall bit rate : 3 091 KbpsMovie name : ВийPerformer : Олег СтепченкоGenre : УжасыContentType : Short FilmDescription : Начало XVIII века... Картограф Джонатан Грин совершает путешествие из Европы на Восток. Следуя через Трансильванию, он понимает, что заблудился. Изрядно поплутав в тумане, он оказывается в небольшом казацком поселении. Народ живет здесь в затворничесRecorded date : UTC 2014-01-30 08:00:00Encoded date : UTC 2016-01-09 11:11:36Tagged date : UTC 2016-01-09 11:16:05Writing application : MkvToMp4 [www.mkvtomp4.ru] version: 0.224 (x32)Cover : YesTitle/Sort : ViyLongDescription : Начало XVIII века... Картограф Джонатан Грин совершает путешествие из Европы на Восток. Следуя через Трансильванию, он понимает, что заблудился. Изрядно поплутав в тумане, он оказывается в небольшом казацком поселении. Народ живет здесь в затворничестве, оградив себя от любых контактов с остальным миром. Что скрывают жители хутора? Чего боятся и почему прячутся? Ученый решает разгадать тайну, связанную с именем необыкновенного мифического создания — Вия. Древние славянские предания оживают…HDVideo : YesAppleStoreCatalogID : 863860041Vendor : Apple:vendor_id:2014-tt1224378ContentRating : ru-movie|12+|200|

VideoID : 1Format : AVCFormat/Info : Advanced Video CodecFormat profile : [email protected] settings, CABAC : YesFormat settings, ReFrames : 8 framesCodec ID : avc1Codec ID/Info : Advanced Video CodingDuration : 2h 10mnBit rate : 2 955 KbpsMaximum bit rate : 10.8 MbpsWidth : 1 266 pixelsHeight : 720 pixelsDisplay aspect ratio : 16:9Frame rate mode : ConstantFrame rate : 23.976 fpsColor space : YUVChroma subsampling : 4:2:0Bit depth : 8 bitsScan type : ProgressiveBits/(Pixel*Frame) : 0.135Stream size : 2.69 GiB (96%)Writing library : x264 core 146 r2538 121396cEncoding settings : cabac=1 / ref=8 / deblock=1:0:0 / analyse=0x3:0x133 / me=umh / subme=9 / psy=1 / psy_rd=1.00:0.00 / mixed_ref=1 / me_range=16 / chroma_me=1 / trellis=2 / 8x8dct=1 / cqm=0 / deadzone=21,11 / fast_pskip=1 / chroma_qp_offset=-2 / threads=3 / lookahead_threads=1 / sliced_threads=0 / nr=0 / decimate=1 / interlaced=0 / bluray_compat=0 / constrained_intra=0 / bframes=3 / b_pyramid=2 / b_adapt=2 / b_bias=0 / direct=3 / weightb=1 / open_gop=0 / weightp=2 / keyint=240 / keyint_min=23 / scenecut=40 / intra_refresh=0 / rc_lookahead=60 / rc=crf / mbtree=1 / crf=21.0 / qcomp=0.60 / qpmin=0 / qpmax=69 / qpstep=4 / vbv_maxrate=62500 / vbv_bufsize=78125 / crf_max=0.0 / nal_hrd=none / filler=0 / ip_ratio=1.40 / aq=1:1.00Language : EnglishEncoded date : UTC 2016-01-09 11:11:36Tagged date : UTC 2016-01-09 11:13:44

AudioID : 2Format : AACFormat/Info : Advanced Audio CodecFormat profile : LCCodec ID : 40Duration : 2h 10mnBit rate mode : VariableBit rate : 128 KbpsMaximum bit rate : 135 KbpsChannel count : 2 channelsChannel positions : Front: L RSampling rate : 48.0 KHzCompression mode : LossyStream size : 119 MiB (4%)Language : RussianEncoded date : UTC 2016-01-09 11:13:26Tagged date : UTC 2016-01-09 11:13:44


Трекер:  [ 09-Янв-2016 13:30 ]

  

Скачать .torrent

Размер .torrent файла 14 KB


Размер: 2.81 GB
Хэш (hash) релиза: 3383558c9e6fe455f0b7b27102a58285e8a8a1a3

Еще никто не оставлял запись к записи скачать торрент [VIDEO] Вий . Будь первым!

!Обратная связь