BD Persona 3 The Movie 4 : Winter of Rebirth Subtitle Indonesia | Arabic SubtitleInhumane 2018 8 IMDB | Home and Away (1988)

Скачать через торрент [VIDEO] Суперфорсаж! Superfast! бесплатно русская версия torrent активатор

Статистика раздачи
Размер:  1.69 GB   |    Зарегистрирован:  2 года 6 месяцев   |    .torrent скачан:  24 раза   |   
Раздают:  1  
   
загрузка...
 
Автор Сообщение

Galfimbul

avatar Galfimbul


Суперфорсаж! / Superfast!«They're going nowhere...fast»
Год выпуска: 2014
Оригинальное название: Superfast!
Страна: США
Жанр: комедия
Возраст: 16+

Режиссер: Джейсон Фридберг, Аарон Зельцер

В ролях: Лили Мирожник, Дэйл Павински, Андреа Наведо, Шантель Вислэвски, Дэниэл Буко, Майкл Флорес, Вероника МакКласки, Гонсало Менендес, Алекс Ашбаух, Дио Джонсон

Описание: Короли комедии снова в строю. На этот раз объектом пародии стала «форсажная» франшиза и прочие фильмы о гонках, ограблениях и крутых тачках. Шутки еще смешнее, ирония еще жестче, плотность гэгов — еще выше.

Продолжительность: 01:39:30
Перевод: Дублированный [iTunes]
Оригинальная дорожка: нет

Автор рипа:

Качество видео: BDRip Исходник: Blu-Ray Remux (1080p) Формат: mp4
Видео кодек: MPEG-4 AVC Аудио кодек: AAC
Видео: 1280x720 at 24.000 fps, AVC at 2 303 kbps avg, 0.104 bit/pixel
Аудио №1 Rus: 48.0 KHz, AAC, 2 ch, 128.0 Kbps
Субтитры: нет
Навигация по главам: нет
GeneralComplete name : E:\VideoRip\Superforsazh.2015_KinoGadget.mp4Format : MPEG-4Format profile : Base MediaCodec ID : isomFile size : 1.69 GiBDuration : 1h 39mnOverall bit rate mode : VariableOverall bit rate : 2 437 KbpsMovie name : Суперфорсаж!Performer : Джейсон Фридберг, Аарон ЗельцерGenre : ComedyContentType : Short FilmRecorded date : 2015Encoded date : UTC 2016-01-09 10:03:06Tagged date : UTC 2016-01-09 10:06:45Writing application : MkvToMp4 [www.mkvtomp4.ru] version: 0.224 (x32)Cover : YesLongDescription : Короли комедии снова в строю. На этот раз объектом пародии стала «форсажная» франшиза и прочие фильмы о гонках, ограблениях и крутых тачках. Шутки еще смешнее, ирония еще жестче, плотность гэгов — еще выше.HDVideo : YesContentRating : mpaa|PG-13|300|

VideoID : 1Format : AVCFormat/Info : Advanced Video CodecFormat profile : [email protected] settings, CABAC : YesFormat settings, ReFrames : 8 framesCodec ID : avc1Codec ID/Info : Advanced Video CodingDuration : 1h 39mnBit rate : 2 303 KbpsMaximum bit rate : 8 990 KbpsWidth : 1 280 pixelsHeight : 720 pixelsDisplay aspect ratio : 16:9Frame rate mode : ConstantFrame rate : 24.000 fpsColor space : YUVChroma subsampling : 4:2:0Bit depth : 8 bitsScan type : ProgressiveBits/(Pixel*Frame) : 0.104Stream size : 1.60 GiB (94%)Writing library : x264 core 146 r2538 121396cEncoding settings : cabac=1 / ref=8 / deblock=1:0:0 / analyse=0x3:0x133 / me=umh / subme=9 / psy=1 / psy_rd=1.00:0.00 / mixed_ref=1 / me_range=16 / chroma_me=1 / trellis=2 / 8x8dct=1 / cqm=0 / deadzone=21,11 / fast_pskip=1 / chroma_qp_offset=-2 / threads=3 / lookahead_threads=1 / sliced_threads=0 / nr=0 / decimate=1 / interlaced=0 / bluray_compat=0 / constrained_intra=0 / bframes=3 / b_pyramid=2 / b_adapt=2 / b_bias=0 / direct=3 / weightb=1 / open_gop=0 / weightp=2 / keyint=240 / keyint_min=24 / scenecut=40 / intra_refresh=0 / rc_lookahead=60 / rc=2pass / mbtree=1 / bitrate=2303 / ratetol=1.0 / qcomp=0.60 / qpmin=0 / qpmax=69 / qpstep=4 / cplxblur=20.0 / qblur=0.5 / vbv_maxrate=62500 / vbv_bufsize=78125 / nal_hrd=none / filler=0 / ip_ratio=1.40 / aq=1:1.00Language : EnglishEncoded date : UTC 2016-01-09 10:03:06Tagged date : UTC 2016-01-09 10:05:21

AudioID : 2Format : AACFormat/Info : Advanced Audio CodecFormat profile : LCCodec ID : 40Duration : 1h 39mnBit rate mode : VariableBit rate : 128 KbpsMaximum bit rate : 135 KbpsChannel count : 2 channelsChannel positions : Front: L RSampling rate : 48.0 KHzCompression mode : LossyStream size : 91.1 MiB (5%)Language : RussianEncoded date : UTC 2016-01-09 10:05:07Tagged date : UTC 2016-01-09 10:05:21
[url=...39840292] [/url]

Трекер:  [ 09-Янв-2016 12:30 ]

  

Скачать .torrent

Размер .torrent файла 17 KB


Размер: 1.69 GB
Хэш (hash) релиза: 844a80ce810c4cddca7ae9e2d66dfb13c15f7d37

Еще никто не оставлял запись к записи скачать торрент [VIDEO] Суперфорсаж! Superfast! . Будь первым!

!Обратная связь