Chicago Hope | GISDATA SRL | Imagine Dragons - Shots.

Скачать через торрент [VIDEO] Скандинавский форсаж Børning бесплатно русская версия torrent активатор

Статистика раздачи
Размер:  1.59 GB   |    Зарегистрирован:  2 года 6 месяцев   |    .torrent скачан:  19 раз   |   
Раздают:  1  
   
загрузка...
 
Автор Сообщение

Galfimbul

avatar Galfimbul


Скандинавский форсаж / Børning«Педаль до упора»
Год выпуска: 2014
Оригинальное название: Børning
Страна: Норвегия
Жанр: боевик, комедия
Возраст: 16+

Режиссер: Халлвард Браэин

В ролях: Андерс Босмо Кристиансен, Тронд Хальбо, Ида Хьюсой, Дженни Скавлан, Отто Йесперсен, Оскар Люндвольд, Хенрик Местад

Описание: У Роя одна, но пламенная страсть — гонки. И как раз, когда он готовится к важному соревнованию, на горизонте появляется 14-летняя дочь, требующая к себе повышенного внимания. Увлекшись выяснением отношений с ребенком, Рой проигрывает заезд, и теперь у него только один шанс восстановить свою репутацию — участие в гонке «Северный Мыс». Кто первым доберется из Осло до самой северной точки Норвегии, тот и будет признан величайшим гонщиком всех времен и народов…

Продолжительность: 01:32:52
Перевод: Дублированный [iTunes]
Оригинальная дорожка: нет

Автор рипа:

Качество видео: BDRip Исходник: Blu-Ray Remux (1080p) Формат: mp4
Видео кодек: MPEG-4 AVC Аудио кодек: AAC
Видео: 1280x536 at 23.976 fps, AVC at 2 318 kbps avg, 0.141 bit/pixel
Аудио №1 Rus: 48.0 KHz, AAC, 2 ch, 128.0 Kbps
Субтитры: нет
Навигация по главам: нет
GeneralComplete name : E:\Skandinavskij_forsazh.2014_KinoGadget.mp4Format : MPEG-4Format profile : Base MediaCodec ID : isomFile size : 1.59 GiBDuration : 1h 32mnOverall bit rate mode : VariableOverall bit rate : 2 453 KbpsMovie name : Скандинавский форсаж | KinoGadget.comPerformer : Халлвард БраэинGenre : Action, ComedyContentType : Short FilmRecorded date : 2014Encoded date : UTC 2016-01-09 07:02:00Tagged date : UTC 2016-01-09 07:05:12Writing application : MkvToMp4 [www.mkvtomp4.ru] version: 0.224 (x32)Cover : YesLongDescription : У Роя одна, но пламенная страсть — гонки. И как раз, когда он готовится к важному соревнованию, на горизонте появляется 14-летняя дочь, требующая к себе повышенного внимания. Увлекшись выяснением отношений с ребенком, Рой проигрывает заезд, и теперь у него только один шанс восстановить свою репутацию — участие в гонке «Северный Мыс». Кто первым доберется из Осло до самой северной точки Норвегии, тот и будет признан величайшим гонщиком всех времен и народов…HDVideo : Yes

VideoID : 1Format : AVCFormat/Info : Advanced Video CodecFormat profile : [email protected] settings, CABAC : YesFormat settings, ReFrames : 8 framesCodec ID : avc1Codec ID/Info : Advanced Video CodingDuration : 1h 32mnBit rate : 2 318 KbpsMaximum bit rate : 10.0 MbpsWidth : 1 280 pixelsHeight : 536 pixelsDisplay aspect ratio : 2.40:1Frame rate mode : ConstantFrame rate : 24.000 fpsColor space : YUVChroma subsampling : 4:2:0Bit depth : 8 bitsScan type : ProgressiveBits/(Pixel*Frame) : 0.141Stream size : 1.50 GiB (94%)Writing library : x264 core 146 r2538 121396cEncoding settings : cabac=1 / ref=8 / deblock=1:0:0 / analyse=0x3:0x133 / me=umh / subme=9 / psy=1 / psy_rd=1.00:0.00 / mixed_ref=1 / me_range=16 / chroma_me=1 / trellis=2 / 8x8dct=1 / cqm=0 / deadzone=21,11 / fast_pskip=1 / chroma_qp_offset=-2 / threads=3 / lookahead_threads=1 / sliced_threads=0 / nr=0 / decimate=1 / interlaced=0 / bluray_compat=0 / constrained_intra=0 / bframes=3 / b_pyramid=2 / b_adapt=2 / b_bias=0 / direct=3 / weightb=1 / open_gop=0 / weightp=2 / keyint=240 / keyint_min=24 / scenecut=40 / intra_refresh=0 / rc_lookahead=60 / rc=2pass / mbtree=1 / bitrate=2318 / ratetol=1.0 / qcomp=0.60 / qpmin=0 / qpmax=69 / qpstep=4 / cplxblur=20.0 / qblur=0.5 / vbv_maxrate=62500 / vbv_bufsize=78125 / nal_hrd=none / filler=0 / ip_ratio=1.40 / aq=1:1.00Language : EnglishEncoded date : UTC 2016-01-09 07:02:00Tagged date : UTC 2016-01-09 07:03:21

AudioID : 2Format : AACFormat/Info : Advanced Audio CodecFormat profile : LCCodec ID : 40Duration : 1h 32mnBit rate mode : VariableBit rate : 128 KbpsMaximum bit rate : 135 KbpsChannel count : 2 channelsChannel positions : Front: L RSampling rate : 48.0 KHzCompression mode : LossyStream size : 85.0 MiB (5%)Language : RussianEncoded date : UTC 2016-01-09 07:03:07Tagged date : UTC 2016-01-09 07:03:21
[url=...39840292] [/url]

Трекер:  [ 09-Янв-2016 10:30 ]

  

Скачать .torrent

Размер .torrent файла 16 KB


Размер: 1.59 GB
Хэш (hash) релиза: b57e2a8fce57d90b44e67beb439b3a2642fd8a90

Еще никто не оставлял запись к записи скачать торрент [VIDEO] Скандинавский форсаж Børning . Будь первым!

!Обратная связь