film de Fujishama Kosuke | Tội Phạm Nhân Bản 2049 | Un pliegue en el tiempo BluRay MicroHD

Скачать через торрент [VIDEO] Возврат Cashback бесплатно русская версия torrent активатор

Статистика раздачи
Размер:  1.96 GB   |    Зарегистрирован:  2 года 6 месяцев   |    .torrent скачан:  55 раз   |   
Раздают:  1  
   
загрузка...
 
Автор Сообщение

Galfimbul

avatar Galfimbul


Возврат / Cashback«Life's what you make it»
Год выпуска: 2006
Оригинальное название: Cashback
Страна: Великобритания
Жанр: драма, мелодрама, комедия
Возраст: 16+

Режиссер: Шон Эллис

В ролях: Шон Биггерстафф, Эмилия Фокс, Стюарт Гудвин, Майкл Лэмбурн, Майкл Диксон, Мишель Райан, Эрика Эллис, Джей Бауэн, Шон Эванс, Кеннет Фахи, Стэн Эллис, Кэти Болл, Селеста Ходж, Ниа Робертс, Хатти Ример, Кинвара Бальфур, Чери Николь, Винни Ли, Лене Босейджер, Фрэнк Хескет, Хейли-Мари Коппин, Кили Хэзелл, Кристин Фуллер, Мишель Бентли, Гари Бисон, Катарина Олссон

Описание: Переживая болезненное расставание с любимой, Бен впадает в бессонницу. В освободившиеся 8 часов он начинает работать в ночную смену местного супермаркета, где главной задачей обслуживающего персонала является «времяубийство». Неожиданно Бен обнаруживает в себе необычную способность останавливать время, что даёт толчок его художественному таланту.

Продолжительность: 01:42:03
Перевод: Профессиональный многоголосый
Оригинальная дорожка: нет

Автор рипа:

Качество видео: BDRip Исходник: Blu-Ray Remux (1080p) Формат: mp4
Видео кодек: MPEG-4 AVC Аудио кодек: AAC
Видео: 1280x544 at 23.976 fps, AVC at 2 610 kbps avg, 0.156 bit/pixel
Аудио №1 Rus: 48.0 KHz, AAC, 2 ch, 128.0 Kbps
Субтитры: нет
Навигация по главам: нет
GeneralComplete name : E:\Vozvrat.2006_KinoGadget.mp4Format : MPEG-4Format profile : Base MediaCodec ID : isomFile size : 1.96 GiBDuration : 1h 42mnOverall bit rate mode : VariableOverall bit rate : 2 746 KbpsMovie name : ВозвратGenre : драма & комедия & мелодрамаContentType : Short FilmDescription : Переживая болезненное расставание, Бен впадает в бессоницу. В освободившиеся 8 часов он начинает работать в ночную смену местного супермаркета, где главной задачей обслуживающего персонала является времяубийство. Неожиданно Бен обнаруживает в себе неRecorded date : 2006-09-10Encoded date : UTC 2016-01-08 20:02:21Tagged date : UTC 2016-01-08 20:10:21Writing application : MkvToMp4 [www.mkvtomp4.ru] version: 0.224 (x32)Cover : YesTitle/Sort : CashbackLongDescription : Переживая болезненное расставание, Бен впадает в бессоницу. В освободившиеся 8 часов он начинает работать в ночную смену местного супермаркета, где главной задачей обслуживающего персонала является времяубийство. Неожиданно Бен обнаруживает в себе необычную способность останавливать время, что даёт толчок его художественному таланту.HDVideo : YesVendor : Apple:vendor_id:2006-tt0460740ContentRating : mpaa|R|400|

VideoID : 1Format : AVCFormat/Info : Advanced Video CodecFormat profile : [email protected] settings, CABAC : YesFormat settings, ReFrames : 11 framesCodec ID : avc1Codec ID/Info : Advanced Video CodingDuration : 1h 42mnBit rate : 2 610 KbpsMaximum bit rate : 12.0 MbpsWidth : 1 280 pixelsHeight : 544 pixelsDisplay aspect ratio : 2.35:1Frame rate mode : ConstantFrame rate : 23.976 fpsColor space : YUVChroma subsampling : 4:2:0Bit depth : 8 bitsScan type : ProgressiveBits/(Pixel*Frame) : 0.156Stream size : 1.86 GiB (95%)Writing library : x264 core 146 r2538 121396cEncoding settings : cabac=1 / ref=11 / deblock=1:-1:-1 / analyse=0x3:0x133 / me=umh / subme=7 / psy=1 / psy_rd=1.00:0.15 / mixed_ref=1 / me_range=24 / chroma_me=1 / trellis=2 / 8x8dct=1 / cqm=0 / deadzone=21,11 / fast_pskip=1 / chroma_qp_offset=-3 / threads=3 / lookahead_threads=1 / sliced_threads=0 / nr=0 / decimate=1 / interlaced=0 / bluray_compat=0 / constrained_intra=0 / bframes=6 / b_pyramid=2 / b_adapt=2 / b_bias=0 / direct=3 / weightb=1 / open_gop=0 / weightp=2 / keyint=240 / keyint_min=23 / scenecut=40 / intra_refresh=0 / rc_lookahead=60 / rc=crf / mbtree=1 / crf=21.0 / qcomp=0.60 / qpmin=0 / qpmax=69 / qpstep=4 / ip_ratio=1.40 / aq=1:1.50Language : EnglishEncoded date : UTC 2016-01-08 20:02:21Tagged date : UTC 2016-01-08 20:07:17

AudioID : 2Format : AACFormat/Info : Advanced Audio CodecFormat profile : LCCodec ID : 40Duration : 1h 41mnBit rate mode : VariableBit rate : 128 KbpsMaximum bit rate : 134 KbpsChannel count : 2 channelsChannel positions : Front: L RSampling rate : 48.0 KHzCompression mode : LossyStream size : 93.0 MiB (5%)Language : RussianEncoded date : UTC 2016-01-08 20:06:26Tagged date : UTC 2016-01-08 20:07:17
[url=...39840292] [/url]

Трекер:  [ 08-Янв-2016 22:30 ]

  

Скачать .torrent

Размер .torrent файла 20 KB


Размер: 1.96 GB
Хэш (hash) релиза: 06752532d5b81759a3bc7062a9e3c26fc65652c1

Еще никто не оставлял запись к записи скачать торрент [VIDEO] Возврат Cashback . Будь первым!

!Обратная связь