ios White Boy Rick (2018) descarga | Photography and Spirit Reaktion Books Exposures by John Harvey | Health Fitness

Скачать через торрент [VIDEO] Сумасшедшая езда Drive Angry бесплатно русская версия torrent активатор

Статистика раздачи
Размер:  2.2 GB   |    Зарегистрирован:  2 года 6 месяцев   |    .torrent скачан:  15 раз   |   
Раздают:  1  
   
загрузка...
 
Автор Сообщение

Galfimbul

avatar Galfimbul


Сумасшедшая езда / Drive Angry«К черту из ада»
Год выпуска: 2011
Оригинальное название: Drive Angry
Страна: США
Жанр: фэнтези, боевик, триллер, комедия
Возраст: 18+

Режиссер: Патрик Люссье

В ролях: Николас Кейдж, Эмбер Хёрд, Уильям Фихтнер, Билли Бёрк, Дэвид Морс, Тодд Фармер, Криста Кэмпбелл, Шарлотта Росс, Том Эткинс, Джек МакГи, Кэти Миксон, Ванета Уолмсли

Описание: В центре событий герой, идущий по следу негодяев, убивших его дочь. Главный герой «слетает с катушек», прыгает за руль своего автомобиля и начинает мстить, оставляя по обочинам дороги трупы похитителей.

Продолжительность: 01:44:22
Перевод: Дублированный [R5]
Оригинальная дорожка: нет

Автор рипа:

Качество видео: BDRip Исходник: Blu-Ray Remux (1080p) Формат: mp4
Видео кодек: MPEG-4 AVC Аудио кодек: AAC
Видео: 1280x720 at 23.976 fps, AVC at 2 877 kbps avg, 0.130 bit/pixel
Аудио №1 Rus: 48.0 KHz, AAC, 2 ch, 128.0 Kbps
Субтитры: нет
Навигация по главам: нет
GeneralComplete name : E:\Sumasshedshaya_ezda.2011_KinoGadget.mp4Format : MPEG-4Format profile : Base MediaCodec ID : isomFile size : 2.20 GiBDuration : 1h 44mnOverall bit rate mode : VariableOverall bit rate : 3 013 KbpsMovie name : Сумасшедшая ездаPerformer : Патрик ЛюссьеGenre : Action, ComedyContentType : Short FilmRecorded date : 2011Encoded date : UTC 2016-01-08 19:34:24Tagged date : UTC 2016-01-08 19:41:14Writing application : MkvToMp4 [www.mkvtomp4.ru] version: 0.224 (x32)Cover : YesLongDescription : В центре событий герой, идущий по следу негодяев, убивших его дочь. Главный герой «слетает с катушек», прыгает за руль своего автомобиля и начинает мстить, оставляя по обочинам дороги трупы похитителей.HDVideo : YesContentRating : mpaa|R|400|

VideoID : 1Format : AVCFormat/Info : Advanced Video CodecFormat profile : [email protected] settings, CABAC : YesFormat settings, ReFrames : 9 framesCodec ID : avc1Codec ID/Info : Advanced Video CodingDuration : 1h 44mnBit rate : 2 877 KbpsMaximum bit rate : 11.7 MbpsWidth : 1 280 pixelsHeight : 720 pixelsDisplay aspect ratio : 16:9Frame rate mode : ConstantFrame rate : 23.976 fpsColor space : YUVChroma subsampling : 4:2:0Bit depth : 8 bitsScan type : ProgressiveBits/(Pixel*Frame) : 0.130Stream size : 2.10 GiB (95%)Writing library : x264 core 146 r2538 121396cEncoding settings : cabac=1 / ref=9 / deblock=1:-1:-1 / analyse=0x3:0x133 / me=umh / subme=7 / psy=1 / psy_rd=1.00:0.15 / mixed_ref=1 / me_range=24 / chroma_me=1 / trellis=2 / 8x8dct=1 / cqm=0 / deadzone=21,11 / fast_pskip=1 / chroma_qp_offset=-3 / threads=3 / lookahead_threads=1 / sliced_threads=0 / nr=0 / decimate=1 / interlaced=0 / bluray_compat=0 / constrained_intra=0 / bframes=6 / b_pyramid=2 / b_adapt=2 / b_bias=0 / direct=3 / weightb=1 / open_gop=0 / weightp=2 / keyint=240 / keyint_min=23 / scenecut=40 / intra_refresh=0 / rc_lookahead=60 / rc=crf / mbtree=1 / crf=21.0 / qcomp=0.60 / qpmin=0 / qpmax=69 / qpstep=4 / ip_ratio=1.40 / aq=1:1.50Language : EnglishEncoded date : UTC 2016-01-08 19:34:24Tagged date : UTC 2016-01-08 19:37:41

AudioID : 2Format : AACFormat/Info : Advanced Audio CodecFormat profile : LCCodec ID : 40Duration : 1h 44mnBit rate mode : VariableBit rate : 128 KbpsMaximum bit rate : 135 KbpsChannel count : 2 channelsChannel positions : Front: L RSampling rate : 48.0 KHzCompression mode : LossyStream size : 95.6 MiB (4%)Language : RussianEncoded date : UTC 2016-01-08 19:37:20Tagged date : UTC 2016-01-08 19:37:41
[url=...39840292] [/url]

Трекер:  [ 08-Янв-2016 22:00 ]

  

Скачать .torrent

Размер .torrent файла 11 KB


Размер: 2.2 GB
Хэш (hash) релиза: ea0147bc1b5253257ead98c6fd8d18c9e0d31329

Еще никто не оставлял запись к записи скачать торрент [VIDEO] Сумасшедшая езда Drive Angry . Будь первым!

!Обратная связь