danicape | Rescue Special Ops | Anna Halprin et Rodin -

Скачать через торрент [VIDEO] Алиса в стране чудес Alice in Wonderland бесплатно русская версия torrent активатор

Статистика раздачи
Размер:  1.42 GB   |    Зарегистрирован:  2 года 7 месяцев   |    .torrent скачан:  45 раз   |   
Раздают:  1  
   
загрузка...
 
Автор Сообщение

Galfimbul

avatar Galfimbul


Алиса в стране чудес / Alice in Wonderland

«Вы приглашены на безумно важное событие»
Год выпуска: 2010
Страна: США
Жанр: фэнтези, приключения, семейный
Продолжительность: 01:48:35
Перевод: Русский Профессиональный (Полное дублирование)
Cубтитры: нет
Режиссер: Тим Бёртон / Tim Burton
В ролях: Джонни Депп, Миа Васиковска, Хелена Бонем Картер, Энн Хэтэуэй, Криспин Гловер, Мэтт Лукас, Майкл Шин, Стивен Фрай, Алан Рикман, Барбара Уиндсор и другие .
Описание: Жизнь 19-летней Алисы Кингсли принимает неожиданный оборот. На викторианской вечеринке, устроенной в её честь, Алисе делает предложение Хэмиш, богатый, но глупый сын лорда и леди Эскот. Не дав ответа, девушка убегает и идёт за кроликом, замеченным ею на лужайке. Кролик как кролик, вот только он одет в камзол и всё время смотрит на карманные часы.

</span>

Фильм снят по мотивам сказки Льюиса Кэрролла «Алиса в стране чудес» (Alice’s Adventures in Wonderland, 1865).
Рост Мии Васиковской, которая играет Алису, 5 футов и 4 дюйма в реальной жизни. По ходу фильма рост Алисы все время меняется – от 6 дюймов до 20 футов. Много работы было над тем, чтобы использовать больше практические методы изменения роста, нежели спецэффекты, часто Алисе (Мии Васиковской) приходилось использовать ходули, чтобы быть выше остальных.
Исполнительница главной роли Миа Васиковска, первая из объявленных прессе актеров, занятых в проекте, была утверждена за четыре месяца до начала съемок.
Джонни Депп пошутил в одном из интервью, что мог бы сыграть все роли в этом мультфильме. Впоследствии он был выбран на роль Сумасшедшего Шляпника.
Фильм основан на одноименной сказке Льюиса Кэрролла и её продолжении «Алиса в Зазеркалье».
Съёмки с живыми артистами продолжались всего 40 дней.
На роль Алисы пробовались Аманда Сайфред и Линдси Лохан.
Музыку к фильму написали известные рок-группы Tokio Hotel и Franz Ferdinand, а также канадская певица Аврил Лавин и вокалист группы Cure Роберт Смит.
Для фильма было построено всего лишь 3 декорации.
В фильме сохранились персонажи, элементы фабулы и центральные темы книг Льюиса Кэрролла («Алиса в Стране чудес» — Alice’s Adventures in Wonderland, 1865; «Алиса в Зазеркалье» — Through the Looking-Glass, and What Alice Found There, 1871), но это совершенно новая история. Алиса возвращается в Страну чудес, где она уже была в детстве, вот только никаких воспоминаний о своих прежних приключениях у неё не осталось.
Пробы на роль Алисы проходила известная молодая актриса Дакота Блю Ричардс. Однако из-за разницы в возрасте (сценарий предусматривал 18-летнюю героиню) и ряда сюжетных поворотов, включающих любовный роман с Сумасшедшим Шляпником (Джонни Депп), 14-летней (на тот момент) Блю Ричардс было отказано.

[b]Релиз группы

Качество:HDRip / [i]рип с BDRip 720p
Формат: MP4
Видео кодек: H.264 Аудио кодек: AAC Видео: 960x540 AR: 16/9 1740 kbps 23.976 fps
Аудио: Русский 2ch 48 kHz 128 kbps Дубляж
...last pass...

x264.exe: --pass 2 --bitrate 1740 --preset medium --profile high --level 4.1 --aq-strength 0.7 --deblock -3:-3 --merange 32 --bframes 5 --direct auto --b-adapt 2 --trellis 2 --no-fast-pskip --no-dct-decimate --psy-rd 0.80:0.05 --subme 11 --me umh --rc-lookahead 50 --colorprim bt709 --transfer bt709 --colormatrix bt709 --sar 1:1 --stats "D:\Alisa.v.strane.chudes.2010.x264.BDRip.720p.Kinozal.tv-HD.log" --output "D:\Alisa.v.strane.chudes.2010.x264.BDRip.720p.Kinozal.tv-HD.mp4" "D:\XVID4PSP 5\Temp\0005.avs"

avs [info]: 960x540p 1:1 @ 2997/125 fps (cfr)
x264 [info]: using SAR=1/1
x264 [info]: using cpu capabilities: MMX2 SSE2Fast SSSE3 SSE4.2 LZCNT
x264 [info]: profile High, level 4.1

x264 [info]: frame I:1929 Avg QP:15.68 size: 90177
x264 [info]: frame P:39537 Avg QP:19.59 size: 20052
x264 [info]: frame B:114733 Avg QP:23.15 size: 3924
x264 [info]: consecutive B-frames: 3.2% 4.0% 10.2% 44.3% 13.8% 24.3%
x264 [info]: mb I I16..4: 8.2% 66.2% 25.6%
x264 [info]: mb P I16..4: 0.7% 7.1% 0.9% P16..4: 33.0% 35.4% 12.3% 0.0% 0.0% skip:10.5%
x264 [info]: mb B I16..4: 0.1% 0.9% 0.1% B16..8: 33.7% 11.7% 1.5% direct: 2.2% skip:49.9% L0:38.6% L1:48.7% BI:12.7%
x264 [info]: 8x8 transform intra:77.4% inter:60.5%
x264 [info]: direct mvs spatial:95.0% temporal:5.0%
x264 [info]: coded y,uvDC,uvAC intra: 87.1% 79.8% 50.3% inter: 15.2% 12.0% 5.7%
x264 [info]: i16 v,h,dc,p: 16% 12% 8% 65%
x264 [info]: i8 v,h,dc,ddl,ddr,vr,hd,vl,hu: 8% 8% 3% 10% 15% 14% 15% 13% 14%
x264 [info]: i4 v,h,dc,ddl,ddr,vr,hd,vl,hu: 10% 9% 5% 9% 15% 13% 14% 11% 13%
x264 [info]: i8c dc,h,v,p: 39% 25% 18% 18%
x264 [info]: Weighted P-Frames: Y:1.9% UV:1.0%
x264 [info]: ref P L0: 61.3% 12.9% 18.2% 7.5% 0.1%
x264 [info]: ref B L0: 90.8% 7.5% 1.8%
x264 [info]: ref B L1: 95.3% 4.7%
x264 [info]: kb/s:1739.93

x264 [total]: encoded 156199 frames, 8.23 fps, 1739.93 kb/s

GeneralComplete name : D:\Torrents\Alisa v strane chudes.2010.HDRip.x264.960x.rip by Frost O.S.mp4Format : MPEG-4Format profile : Base MediaCodec ID : isomFile size : 1.42 GiBDuration : 1h 48mnOverall bit rate mode : VariableOverall bit rate : 1 876 KbpsMovie name : Alisa v strane chudes 2010 HDRip x264 960x rip by Frost O SContentType : Short FilmEncoded date : UTC 2016-01-06 17:53:15Tagged date : UTC 2016-01-06 17:55:21Writing application : MkvToMp4 version: 0.224 (x64)Cover : YesComment : rip by Frost O.S

VideoID : 1Format : AVCFormat/Info : Advanced Video CodecFormat profile : [email protected] settings, CABAC : YesFormat settings, ReFrames : 4 framesCodec ID : avc1Codec ID/Info : Advanced Video CodingDuration : 1h 48mnBit rate : 1 740 KbpsMaximum bit rate : 7 905 KbpsWidth : 960 pixelsHeight : 540 pixelsDisplay aspect ratio : 16:9Frame rate mode : ConstantFrame rate : 23.976 fpsColor space : YUVChroma subsampling : 4:2:0Bit depth : 8 bitsScan type : ProgressiveBits/(Pixel*Frame) : 0.140Stream size : 1.32 GiB (93%)Writing library : x264 core 130 r2273 b3065e6Encoding settings : cabac=1 / ref=3 / deblock=1:-3:-3 / analyse=0x3:0x113 / me=umh / subme=11 / psy=1 / psy_rd=0.80:0.05 / mixed_ref=1 / me_range=32 / chroma_me=1 / trellis=2 / 8x8dct=1 / cqm=0 / deadzone=21,11 / fast_pskip=0 / chroma_qp_offset=-3 / threads=3 / lookahead_threads=1 / sliced_threads=0 / nr=0 / decimate=0 / interlaced=0 / bluray_compat=0 / constrained_intra=0 / bframes=5 / b_pyramid=2 / b_adapt=2 / b_bias=0 / direct=3 / weightb=1 / open_gop=0 / weightp=2 / keyint=250 / keyint_min=23 / scenecut=40 / intra_refresh=0 / rc_lookahead=50 / rc=2pass / mbtree=1 / bitrate=1740 / ratetol=1.0 / qcomp=0.60 / qpmin=0 / qpmax=69 / qpstep=4 / cplxblur=20.0 / qblur=0.5 / ip_ratio=1.40 / aq=1:0.70Language : EnglishEncoded date : UTC 2016-01-06 17:53:15Tagged date : UTC 2016-01-06 17:53:43Color primaries : BT.709Transfer characteristics : BT.709Matrix coefficients : BT.709Color range : Limited

AudioID : 2Format : AACFormat/Info : Advanced Audio CodecFormat profile : LCCodec ID : 40Duration : 1h 48mnBit rate mode : VariableBit rate : 128 KbpsMaximum bit rate : 135 KbpsChannel(s) : 2 channelsChannel positions : Front: L RSampling rate : 48.0 KHzCompression mode : LossyStream size : 99.4 MiB (7%)Title : _Dub_ / _Dub_Language : RussianEncoded date : UTC 2016-01-06 17:53:40Tagged date : UTC 2016-01-06 17:53:43


Трекер:  [ 08-Янв-2016 14:00 ]

  

Скачать .torrent

Размер .torrent файла 14 KB


Размер: 1.42 GB
Хэш (hash) релиза: ea62605dbe6c4344463f9bf13b2a3683c0dbe6c1

Торренты, похожие на [VIDEO] Алиса в стране чудес Alice in Wonderland скачать торрент

Форум Название Автор Размер S L Добавлен
Видео (Фильмы/Клипы) ·· [VIDEO] Алиса в стране чудес / Alice in Wonderland (Тим Бёртон / Tim Burton) [2010, фэнтези, приключения, семейный, HDRip] [MP4, 480x] Dub Galfimbul 488846867466 MB 0 0 1452256038

15:27

8-Янв-16

Видео (Фильмы/Клипы) ·· [VIDEO] Алиса в Стране Чудес / Alice in Wonderland (Ник Уиллинг / Nick Willing) [1999, сказка, DVDRip] [3GP, 320x] Galfimbul 412730123394 MB 0 0 1417543449

21:04

2-Дек-14

Еще никто не оставлял запись к записи скачать торрент [VIDEO] Алиса в стране чудес Alice in Wonderland . Будь первым!

!Обратная связь