Mira Sorvino | tarubar jad so katiya | Família

Скачать через торрент [VIDEO] Алиса в стране чудес Alice in Wonderland бесплатно русская версия torrent активатор

Статистика раздачи
Размер:  466 MB   |    Зарегистрирован:  2 года 6 месяцев   |    .torrent скачан:  16 раз   |   
Раздают:  1  
   
загрузка...
 
Автор Сообщение

Galfimbul

avatar Galfimbul


Алиса в стране чудес / Alice in Wonderland

«Вы приглашены на безумно важное событие»
Год выпуска: 2010
Страна: США
Жанр: фэнтези, приключения, семейный
Продолжительность: 01:48:35
Перевод: Русский Профессиональный (Полное дублирование)
Cубтитры: нет
Режиссер: Тим Бёртон / Tim Burton
В ролях: Джонни Депп, Миа Васиковска, Хелена Бонем Картер, Энн Хэтэуэй, Криспин Гловер, Мэтт Лукас, Майкл Шин, Стивен Фрай, Алан Рикман, Барбара Уиндсор и другие .
Описание: Жизнь 19-летней Алисы Кингсли принимает неожиданный оборот. На викторианской вечеринке, устроенной в её честь, Алисе делает предложение Хэмиш, богатый, но глупый сын лорда и леди Эскот. Не дав ответа, девушка убегает и идёт за кроликом, замеченным ею на лужайке. Кролик как кролик, вот только он одет в камзол и всё время смотрит на карманные часы.

</span>

Фильм снят по мотивам сказки Льюиса Кэрролла «Алиса в стране чудес» (Alice’s Adventures in Wonderland, 1865).
Рост Мии Васиковской, которая играет Алису, 5 футов и 4 дюйма в реальной жизни. По ходу фильма рост Алисы все время меняется – от 6 дюймов до 20 футов. Много работы было над тем, чтобы использовать больше практические методы изменения роста, нежели спецэффекты, часто Алисе (Мии Васиковской) приходилось использовать ходули, чтобы быть выше остальных.
Исполнительница главной роли Миа Васиковска, первая из объявленных прессе актеров, занятых в проекте, была утверждена за четыре месяца до начала съемок.
Джонни Депп пошутил в одном из интервью, что мог бы сыграть все роли в этом мультфильме. Впоследствии он был выбран на роль Сумасшедшего Шляпника.
Фильм основан на одноименной сказке Льюиса Кэрролла и её продолжении «Алиса в Зазеркалье».
Съёмки с живыми артистами продолжались всего 40 дней.
На роль Алисы пробовались Аманда Сайфред и Линдси Лохан.
Музыку к фильму написали известные рок-группы Tokio Hotel и Franz Ferdinand, а также канадская певица Аврил Лавин и вокалист группы Cure Роберт Смит.
Для фильма было построено всего лишь 3 декорации.
В фильме сохранились персонажи, элементы фабулы и центральные темы книг Льюиса Кэрролла («Алиса в Стране чудес» — Alice’s Adventures in Wonderland, 1865; «Алиса в Зазеркалье» — Through the Looking-Glass, and What Alice Found There, 1871), но это совершенно новая история. Алиса возвращается в Страну чудес, где она уже была в детстве, вот только никаких воспоминаний о своих прежних приключениях у неё не осталось.
Пробы на роль Алисы проходила известная молодая актриса Дакота Блю Ричардс. Однако из-за разницы в возрасте (сценарий предусматривал 18-летнюю героиню) и ряда сюжетных поворотов, включающих любовный роман с Сумасшедшим Шляпником (Джонни Депп), 14-летней (на тот момент) Блю Ричардс было отказано.

[b]Релиз группы

Качество:HDRip / [i]рип с BDRip 720p
Формат: MP4
Видео кодек: XviD Аудио кодек: AAC Видео: 480x272 AR: 16/9 464 kbps 23.976 fps
Аудио: Русский 2ch 48 kHz 128 kbps Дубляж
GeneralComplete name : D:\Torrents\Alisa v strane chudes.2010.HDRip.XviD.480x.rip by Frost O.S.mp4Format : MPEG-4Format profile : Base MediaCodec ID : isomFile size : 466 MiBDuration : 1h 48mnOverall bit rate mode : VariableOverall bit rate : 600 KbpsMovie name : Alisa v strane chudes 2010 HDRip XviD 480x rip by Frost O SContentType : Short FilmEncoded date : UTC 2016-01-07 14:15:01Tagged date : UTC 2016-01-07 14:15:24Writing application : MkvToMp4 version: 0.224 (x64)Cover : YesComment : rip by Frost O.S

VideoID : 1Format : MPEG-4 VisualFormat profile : Advanced [email protected] settings, BVOP : YesFormat settings, QPel : NoFormat settings, GMC : No warppointsFormat settings, Matrix : CustomCodec ID : 20Duration : 1h 48mnBit rate mode : VariableBit rate : 464 KbpsMaximum bit rate : 2 770 KbpsWidth : 480 pixelsHeight : 272 pixelsDisplay aspect ratio : 16:9Frame rate mode : ConstantFrame rate : 23.976 fpsColor space : YUVChroma subsampling : 4:2:0Bit depth : 8 bitsScan type : ProgressiveCompression mode : LossyBits/(Pixel*Frame) : 0.148Stream size : 361 MiB (77%)Writing library : XviD 1.2.1 (UTC 2008-12-04)Language : EnglishTagged date : UTC 2016-01-07 14:15:07

AudioID : 2Format : AACFormat/Info : Advanced Audio CodecFormat profile : LCCodec ID : 40Duration : 1h 48mnBit rate mode : VariableBit rate : 128 KbpsMaximum bit rate : 135 KbpsChannel(s) : 2 channelsChannel positions : Front: L RSampling rate : 48.0 KHzCompression mode : LossyStream size : 99.4 MiB (21%)Title : _Dub_ / _Dub_Language : RussianEncoded date : UTC 2016-01-07 14:15:03Tagged date : UTC 2016-01-07 14:15:07


Трекер:  [ 08-Янв-2016 14:00 ]

  

Скачать .torrent

Размер .torrent файла 18 KB


Размер: 466 MB
Хэш (hash) релиза: 0abfd86cebcf09095b7705866dd797615427bb8c

Торренты, похожие на [VIDEO] Алиса в стране чудес Alice in Wonderland скачать торрент

Форум Название Автор Размер S L Добавлен
Видео (Фильмы/Клипы) ·· [VIDEO] Алиса в стране чудес / Alice in Wonderland (Тим Бёртон / Tim Burton) [2010, фэнтези, приключения, семейный, HDRip] [MP4, 960x] Dub Galfimbul 15278327971.42 GB 0 0 1452256053

15:27

8-Янв-16

Видео (Фильмы/Клипы) ·· [VIDEO] Алиса в Стране Чудес / Alice in Wonderland (Ник Уиллинг / Nick Willing) [1999, сказка, DVDRip] [3GP, 320x] Galfimbul 412730123394 MB 0 0 1417543449

21:04

2-Дек-14

Еще никто не оставлял запись к записи скачать торрент [VIDEO] Алиса в стране чудес Alice in Wonderland . Будь первым!

!Обратная связь