Télécharger Part 1 | Read More... | тег Оборотни

Скачать через торрент [VIDEO] Железная хватка True Grit бесплатно русская версия torrent активатор

Статистика раздачи
Размер:  1.96 GB   |    Зарегистрирован:  2 года 6 месяцев   |    .torrent скачан:  27 раз   |   
Раздают:  1  
   
загрузка...
 
Автор Сообщение

Galfimbul

avatar Galfimbul


Железная хватка / True Grit«Расплата наступит»
Год выпуска: 2010
Оригинальное название: True Grit
Страна: США
Жанр: драма, приключения, вестерн
Возраст: 16+

Режиссер: Итан Коэн, Джоэл Коэн

В ролях: Джефф Бриджес, Мэтт Дэймон, Джош Бролин, Хейли Стайнфелд, Бэрри Пеппер, Дэкин Мэтьюз, Ярлат Конрой, Пол Рэй, Домналл Глисон, Элизабет Марвел

Описание: В этом фильме рассказывается история 14-летней девочки, стареющего судебного пристава Рустера Когберна и ещё одного законника. Вместе они идут по следам убийцы отца девочки, которые ведут во враждебную индейскую территорию.

Продолжительность: 01:50:20
Перевод: Дублированный [Blu-Ray CEE]
Оригинальная дорожка: нет

Автор рипа:

Качество видео: BDRip Исходник: Blu-Ray Remux (1080p) Формат: mp4
Видео кодек: MPEG-4 AVC Аудио кодек: AAC
Видео: 1280x544 at 23.976 fps, AVC at 2 406 kbps avg, 0.144 bit/pixel
Аудио №1 Rus: 48.0 KHz, AAC, 2 ch, 128.0 Kbps
Субтитры: нет
Навигация по главам: нет
[07.01.2016 12:30:20] avs [info]: 1280x544p 1:1 @ 24000/1001 fps (cfr)
[07.01.2016 12:30:20] x264 [info]: using SAR=1/1
[07.01.2016 12:30:20] x264 [info]: using cpu capabilities: MMX2 SSE2Fast SSSE3 Cache64
[07.01.2016 12:30:21] x264 [info]: profile High, level 4.1
[08.01.2016 7:53:21] x264 [info]: frame I:1671 Avg QP:16.37 size:113880
[08.01.2016 7:53:22] x264 [info]: frame P:43640 Avg QP:19.02 size: 23139
[08.01.2016 7:53:22] x264 [info]: frame B:113419 Avg QP:20.28 size: 6976
[08.01.2016 7:53:22] x264 [info]: consecutive B-frames: 1.7% 3.1% 18.0% 77.2%
[08.01.2016 7:53:22] x264 [info]: mb I I16..4: 10.6% 71.3% 18.2%
[08.01.2016 7:53:22] x264 [info]: mb P I16..4: 1.2% 4.4% 0.5% P16..4: 46.3% 17.8% 15.5% 0.4% 0.2% skip:13.8%
[08.01.2016 7:53:22] x264 [info]: mb B I16..4: 0.2% 0.5% 0.1% B16..8: 43.2% 7.4% 1.6% direct: 3.7% skip:43.3% L0:46.5% L1:47.1% BI: 6.3%
[08.01.2016 7:53:22] x264 [info]: 8x8 transform intra:70.5% inter:60.4%
[08.01.2016 7:53:22] x264 [info]: direct mvs spatial:99.8% temporal:0.2%
[08.01.2016 7:53:22] x264 [info]: coded y,uvDC,uvAC intra: 77.6% 76.5% 53.2% inter: 19.0% 15.6% 1.5%
[08.01.2016 7:53:22] x264 [info]: i16 v,h,dc,p: 61% 9% 13% 17%
[08.01.2016 7:53:22] x264 [info]: i8 v,h,dc,ddl,ddr,vr,hd,vl,hu: 8% 9% 11% 9% 13% 12% 13% 11% 14%
[08.01.2016 7:53:22] x264 [info]: i4 v,h,dc,ddl,ddr,vr,hd,vl,hu: 8% 8% 5% 10% 15% 13% 14% 11% 15%
[08.01.2016 7:53:22] x264 [info]: i8c dc,h,v,p: 45% 25% 17% 13%
[08.01.2016 7:53:22] x264 [info]: Weighted P-Frames: Y:9.6% UV:7.3%
[08.01.2016 7:53:22] x264 [info]: ref P L0: 43.4% 9.6% 18.3% 7.5% 6.7% 5.3% 5.1% 3.1% 0.9% 0.1%
[08.01.2016 7:53:22] x264 [info]: ref B L0: 63.0% 15.1% 9.0% 4.9% 3.8% 2.9% 1.3%
[08.01.2016 7:53:22] x264 [info]: ref B L1: 90.8% 9.2%
[08.01.2016 7:53:22] x264 [info]: kb/s:2406.33
[08.01.2016 7:53:22] encoded 158730 frames, 2.27 fps, 2406.33 kb/s
GeneralComplete name : E:\Zheleznaya_xvatka.2010_KinoGadget.mp4Format : MPEG-4Format profile : Base MediaCodec ID : isomFile size : 1.96 GiBDuration : 1h 50mnOverall bit rate mode : VariableOverall bit rate : 2 543 KbpsMovie name : Железная хваткаPerformer : Ethan Coen & Joel CoenGenre : WesternContentType : Short FilmDescription : Сюжет рассказывает историю 14-летней девочки, стареющего судебного пристава Рустера Когберна и ещё одного законника. Вместе они идут по следам убийцы отца девочки, которые ведут во враждебную индейскую территорию.Recorded date : UTC 2010-12-22 08:00:00Encoded date : UTC 2016-01-08 05:15:51Tagged date : UTC 2016-01-08 05:19:22Writing application : MkvToMp4 [www.mkvtomp4.ru] version: 0.224 (x32)Cover : YesTitle/Sort : True GritHDVideo : YesAppleStoreCatalogID : 417571722Vendor : Apple:vendor_id:2010-tt1403865ContentRating : mpaa|PG-13|300|

VideoID : 1Format : AVCFormat/Info : Advanced Video CodecFormat profile : [email protected] settings, CABAC : YesFormat settings, ReFrames : 8 framesCodec ID : avc1Codec ID/Info : Advanced Video CodingDuration : 1h 50mnBit rate : 2 406 KbpsMaximum bit rate : 12.2 MbpsWidth : 1 280 pixelsHeight : 544 pixelsDisplay aspect ratio : 2.35:1Frame rate mode : ConstantFrame rate : 23.976 fpsColor space : YUVChroma subsampling : 4:2:0Bit depth : 8 bitsScan type : ProgressiveBits/(Pixel*Frame) : 0.144Stream size : 1.85 GiB (95%)Writing library : x264 core 148 r2638 7599210Encoding settings : cabac=1 / ref=8 / deblock=1:-1:-1 / analyse=0x3:0x133 / me=umh / subme=9 / psy=1 / psy_rd=1.00:0.15 / mixed_ref=1 / me_range=16 / chroma_me=1 / trellis=2 / 8x8dct=1 / cqm=0 / deadzone=21,11 / fast_pskip=1 / chroma_qp_offset=-3 / threads=3 / lookahead_threads=1 / sliced_threads=0 / nr=0 / decimate=1 / interlaced=0 / bluray_compat=0 / constrained_intra=0 / bframes=3 / b_pyramid=2 / b_adapt=2 / b_bias=0 / direct=3 / weightb=1 / open_gop=0 / weightp=2 / keyint=240 / keyint_min=23 / scenecut=40 / intra_refresh=0 / rc_lookahead=60 / rc=crf / mbtree=1 / crf=21.0 / qcomp=0.60 / qpmin=0 / qpmax=69 / qpstep=4 / vbv_maxrate=62500 / vbv_bufsize=78125 / crf_max=0.0 / nal_hrd=none / filler=0 / ip_ratio=1.40 / aq=1:1.50Language : EnglishEncoded date : UTC 2016-01-08 05:15:51Tagged date : UTC 2016-01-08 05:17:17

AudioID : 2Format : AACFormat/Info : Advanced Audio CodecFormat profile : LCCodec ID : 40Duration : 1h 50mnBit rate mode : VariableBit rate : 128 KbpsMaximum bit rate : 135 KbpsChannel count : 2 channelsChannel positions : Front: L RSampling rate : 48.0 KHzCompression mode : LossyStream size : 101 MiB (5%)Language : RussianEncoded date : UTC 2016-01-08 05:17:01Tagged date : UTC 2016-01-08 05:17:17
[url=...39840292] [/url]

Трекер:  [ 08-Янв-2016 08:00 ]

  

Скачать .torrent

Размер .torrent файла 20 KB


Размер: 1.96 GB
Хэш (hash) релиза: 4e50deffdf550d7e25865cd685f2cc1944220f21

Еще никто не оставлял запись к записи скачать торрент [VIDEO] Железная хватка True Grit . Будь первым!

!Обратная связь