OpenLoadHD | 6.8 01 h 39 minStoker | The Good Doctor

Скачать через торрент [VIDEO] Приходи на меня посмотреть бесплатно русская версия torrent активатор

Статистика раздачи
Размер:  884 MB   |    Зарегистрирован:  2 года 6 месяцев   |    .torrent скачан:  21 раз   |   
Раздают:  1  
   
загрузка...
 
Автор Сообщение

Galfimbul

avatar Galfimbul


Приходи на меня посмотреть

Год выпуска: 2000
Страна: Россия, к/ст им.Горького, НТВ-профит
Жанр: комедия, мелодрама
Продолжительность: 01:41:56

Режиссер: Олег Янковский, Михаил Агранович
Сценарий: Надежда Птушкина
Продюсер: Игорь Толстунов, Владимир Грамматиков, Михаил Зильберман, Владимир Репников
Оператор: Михаил Агранович
Композитор: Вадим Биберган
Художник: Владимир Филиппов, Ольга Кравченя
Монтаж: Вера Круглова

В ролях: Екатерина Васильева, Ирина Купченко, Олег Янковский, Наталья Щукина

Описание: По мотивам пьесы Надежды Михайловны Птушкиной "Пока она умирала". Перед Новым годом окна огромного города светятся изнутри разноцветными елочными огнями. Кажется, что за каждым из этих окон осторожно хранят любимый праздник. Кажется, что за каждым из них ждут новогоднего исполнения желаний… К силуэту пожилой женщины за одним из окон старого московского дома соседи по двору наверняка привыкли как к чему-то неизменному. Софья Ивановна уже десять лет не встает со своего кресла, целыми днями смотрит в окно, клеит из бумаги трогательные фигурки и слушает Диккенса, которого читает ей вслух единственная дочь Таня. Единственная наследница, Таня, которая должна бы передать драгоценности своей дочери, похоже, смирилась с положением старой девы, и вся ее жизнь состоит только из забот о больной матери.
Возможно, эти женщины провели бы вдвоем еще немало тихих, уединенных лет в своей уютной квартире, если бы в один из предновогодних вечеров Софья Ивановна не собралась бы. .. умирать. О чем и сообщила своей дочери. И так сильно захотелось Софье Ивановне, чтобы ее дочь была счастлива, а Тане так захотелось, чтобы у ее мамы на душе было спокойно…. И так близок был Новый год, что за окном старой московской квартиры начались самые настоящие новогодние чудеса…

Качество: DVDRip |[url=...109073]DVD9[/url]|
Формат: MP4

Видео: 480x360, [email protected], AR:1.33, 1080 kbps, 25.000 fps, 0.250 bpp
Аудио: 2ch, 48 kHz, 128 kbps
Cубтитры: русские, английские
Формат субтитров: softsub (SRT)

[b]Релиз:

</a></span></span>
ОбщееУникальный идентификатор : 237789179774456538013397008721470655584 (0xB2E487B9BCFCFA70A935E0227C518C60)Полное имя : E:\Rutracker\Приходи на меня посмотреть 2000\[email protected]Формат : MatroskaВерсия формата : Version 4 / Version 2Размер файла : 884 МбайтПродолжительность : 1 ч. 41 м.Общий поток : 1212 Кбит/секНазвание фильма : Приходи на меня посмотреть / 2000 [email protected]=-Дата кодирования : UTC 2016-01-07 17:00:56Программа кодирования : mkvmerge v8.7.0 ('All of the above') 32bitБиблиотека кодирования : libebml v1.3.3 + libmatroska v1.4.4

ВидеоИдентификатор : 1Формат : AVCФормат/Информация : Advanced Video CodecПрофиль формата : [email protected]Параметр CABAC формата : ДаПараметр ReFrames формата : 9 кадровИдентификатор кодека : V_MPEG4/ISO/AVCПродолжительность : 1 ч. 41 м.Битрейт : 1080 Кбит/секШирина : 480 пикселейВысота : 360 пикселейСоотношение сторон : 4:3Режим частоты кадров : ПостоянныйЧастота кадров : 25,000 кадров/секЦветовое пространство : YUVСубдискретизация насыщенности : 4:2:0Битовая глубина : 8 битТип развёртки : ПрогрессивнаяБит/(Пиксели*Кадры) : 0.250Размер потока : 787 Мбайт (89%)Заголовок : Rip by nnlabetikБиблиотека кодирования : x264 core 146 r2538 121396cНастройки программы : cabac=1 / ref=9 / deblock=1:-2:-1 / analyse=0x3:0x113 / me=umh / subme=11 / psy=1 / psy_rd=1.00:0.20 / mixed_ref=1 / me_range=32 / chroma_me=1 / trellis=2 / 8x8dct=1 / cqm=0 / deadzone=21,11 / fast_pskip=0 / chroma_qp_offset=-3 / threads=4 / lookahead_threads=1 / sliced_threads=0 / nr=0 / decimate=1 / interlaced=0 / bluray_compat=0 / constrained_intra=0 / bframes=11 / b_pyramid=2 / b_adapt=2 / b_bias=0 / direct=3 / weightb=1 / open_gop=0 / weightp=0 / keyint=250 / keyint_min=25 / scenecut=40 / intra_refresh=0 / rc_lookahead=60 / rc=2pass / mbtree=1 / bitrate=1080 / ratetol=1.0 / qcomp=0.60 / qpmin=0 / qpmax=69 / qpstep=4 / cplxblur=20.0 / qblur=0.5 / vbv_maxrate=14000 / vbv_bufsize=14000 / nal_hrd=none / filler=0 / ip_ratio=1.35 / aq=1:1.00Язык : RussianDefault : ДаForced : НетЦветовой диапазон : LimitedОсновные цвета : BT.709Характеристики трансфера : BT.709Коэффициенты матрицы : BT.709

АудиоИдентификатор : 2Формат : AACФормат/Информация : Advanced Audio CodecПрофиль формата : LCИдентификатор кодека : A_AACПродолжительность : 1 ч. 41 м.Битрейт : 132 Кбит/секКаналы : 2 каналаРасположение каналов : Front: L RЧастота : 48,0 КГцЧастота кадров : 46,875 кадров/сек (1024 spf)Метод сжатия : С потерямиРазмер потока : 94,6 Мбайт (11%)Язык : RussianDefault : ДаForced : Нет

Текст #1Идентификатор : 3Формат : UTF-8Идентификатор кодека : S_TEXT/UTF8Идентификатор кодека/Информация : UTF-8 Plain TextПродолжительность : 1 ч. 35 м.Битрейт : 115 бит/секCount of elements : 1688Размер потока : 80,5 Кбайт (0%)Язык : RussianDefault : НетForced : Нет

Текст #2Идентификатор : 4Формат : UTF-8Идентификатор кодека : S_TEXT/UTF8Идентификатор кодека/Информация : UTF-8 Plain TextПродолжительность : 1 ч. 38 м.Битрейт : 56 бит/секCount of elements : 1557Размер потока : 40,5 Кбайт (0%)Язык : EnglishDefault : НетForced : Нет

Меню00:00:00.000 : :Chapter 0100:02:33.000 : :Chapter 0200:07:46.200 : :Chapter 0300:13:28.200 : :Chapter 0400:18:52.800 : :Chapter 0500:25:16.800 : :Chapter 0600:31:52.800 : :Chapter 0700:36:21.000 : :Chapter 0800:41:52.800 : :Chapter 0900:50:17.400 : :Chapter 1000:55:54.600 : :Chapter 1101:00:25.200 : :Chapter 1201:08:28.800 : :Chapter 1301:13:46.800 : :Chapter 1401:20:02.400 : :Chapter 1501:25:01.200 : :Chapter 1601:28:11.400 : :Chapter 1701:30:50.400 : :Chapter 1801:34:49.200 : :Chapter 19


Трекер:  [ 07-Янв-2016 21:30 ]

  

Скачать .torrent

Размер .torrent файла 17 KB


Размер: 884 MB
Хэш (hash) релиза: 2979552a47a7e1f3481b0cc1c3c9f410d97ce8b8

Еще никто не оставлял запись к записи скачать торрент [VIDEO] Приходи на меня посмотреть . Будь первым!

!Обратная связь