↳ Volná diskuze | Summer in Berlin (2006) | Tyler Perry's Acrimony

Скачать через торрент [VIDEO] Сирота казанская бесплатно русская версия torrent активатор

Статистика раздачи
Размер:  706 MB   |    Зарегистрирован:  2 года 7 месяцев   |    .torrent скачан:  19 раз   |   
Раздают:  1  
   
загрузка...
 
Автор Сообщение

Galfimbul

avatar Galfimbul


Сирота казанская

Год выпуска: 1997
Страна: Россия
Жанр: комедия, мелодрама
Продолжительность: 01:21:29

Режиссер: Владимир Машков
Сценарий: Олег Антонов
Продюсер: Игорь Толстунов
Оператор: Николай Немоляев
Композитор: Сергей Бондаренко
Художник: Александр Боровский, Екатерина Котова
Монтаж: Вера Круглова

В ролях: Елена Шевченко, Николай Фоменко, Олег Табаков, Валентин Гафт, Лев Дуров, Виктор Павлов, Татьяна Рогозина, Федор Валиков, Владимир Машков, Михаил Филипчук, Людмила Давыдова

Описание: Молодая учительница Настя решила после смерти матери опубликовать ее не отправленное письмо некоему Павлу… Так, однажды в новогоднюю ночь, в поселке появляются три Павла — очень неординарные личности. Труднее всего приходится ее жениху Коле: одно дело сирота, а тут сразу три отца!

Качество: DVDRip |[url=...102974]DVD5[/url]|
Формат: MP4

Видео: 480x360, [email protected], AR:1.33, 1080 kbps, 23.976 fps, 0.261 bpp
Аудио: 2ch, 48 kHz, 128 kbps

[b]Релиз:

</a></span></span>
ОбщееУникальный идентификатор : 201031389801515009884616475767092674549 (0x973D3CC22FC3AA9E8A7B191A8A21FFF5)Полное имя : ...\Sirota [email protected]Формат : MatroskaВерсия формата : Version 4 / Version 2Размер файла : 706 МбайтПродолжительность : 1 ч. 21 м.Общий поток : 1211 Кбит/секНазвание фильма : Сирота казанская / 1997 [email protected]=-Дата кодирования : UTC 2016-01-07 08:20:28Программа кодирования : mkvmerge v8.7.0 ('All of the above') 32bitБиблиотека кодирования : libebml v1.3.3 + libmatroska v1.4.4

ВидеоИдентификатор : 1Формат : AVCФормат/Информация : Advanced Video CodecПрофиль формата : [email protected]Параметр CABAC формата : ДаПараметр ReFrames формата : 9 кадровИдентификатор кодека : V_MPEG4/ISO/AVCПродолжительность : 1 ч. 21 м.Битрейт : 1080 Кбит/секШирина : 480 пикселейВысота : 360 пикселейСоотношение сторон : 4:3Режим частоты кадров : ПостоянныйЧастота кадров : 23,976 (24000/1001) кадра/секЦветовое пространство : YUVСубдискретизация насыщенности : 4:2:0Битовая глубина : 8 битТип развёртки : ПрогрессивнаяБит/(Пиксели*Кадры) : 0.261Размер потока : 629 Мбайт (89%)Заголовок : Rip by nnlabetikБиблиотека кодирования : x264 core 148 r2638 7599210Настройки программы : cabac=1 / ref=9 / deblock=1:-2:-1 / analyse=0x3:0x113 / me=umh / subme=11 / psy=1 / psy_rd=1.00:0.00 / mixed_ref=1 / me_range=32 / chroma_me=1 / trellis=2 / 8x8dct=1 / cqm=0 / deadzone=21,11 / fast_pskip=0 / chroma_qp_offset=-2 / threads=4 / lookahead_threads=1 / sliced_threads=0 / nr=0 / decimate=1 / interlaced=0 / bluray_compat=0 / constrained_intra=0 / bframes=10 / b_pyramid=2 / b_adapt=2 / b_bias=0 / direct=3 / weightb=1 / open_gop=0 / weightp=0 / keyint=240 / keyint_min=23 / scenecut=40 / intra_refresh=0 / rc_lookahead=60 / rc=2pass / mbtree=0 / bitrate=1080 / ratetol=1.0 / qcomp=0.60 / qpmin=0 / qpmax=69 / qpstep=4 / cplxblur=20.0 / qblur=0.5 / vbv_maxrate=20000 / vbv_bufsize=25000 / nal_hrd=none / filler=0 / ip_ratio=1.35 / pb_ratio=1.25 / aq=1:1.00Язык : RussianDefault : ДаForced : НетЦветовой диапазон : LimitedОсновные цвета : BT.709Характеристики трансфера : BT.709Коэффициенты матрицы : BT.709

АудиоИдентификатор : 2Формат : AACФормат/Информация : Advanced Audio CodecПрофиль формата : LCИдентификатор кодека : A_AACПродолжительность : 1 ч. 21 м.Битрейт : 129 Кбит/секКаналы : 2 каналаРасположение каналов : Front: L RЧастота : 48,0 КГцЧастота кадров : 46,875 кадров/сек (1024 spf)Метод сжатия : С потерямиРазмер потока : 75,4 Мбайт (11%)Язык : RussianDefault : ДаForced : Нет

Меню00:00:00.000 : :Chapter 0100:03:41.868 : :Chapter 0200:05:58.535 : :Chapter 0300:08:56.702 : :Chapter 0400:13:02.869 : :Chapter 0500:16:42.902 : :Chapter 0600:20:20.302 : :Chapter 0700:25:40.636 : :Chapter 0800:27:32.370 : :Chapter 0900:30:42.338 : :Chapter 1000:32:50.338 : :Chapter 1100:36:30.005 : :Chapter 1200:38:34.405 : :Chapter 1300:42:04.972 : :Chapter 1400:45:40.139 : :Chapter 1500:51:45.706 : :Chapter 1600:53:32.240 : :Chapter 1700:55:57.041 : :Chapter 1800:59:44.575 : :Chapter 1901:04:37.075 : :Chapter 2001:06:45.409 : :Chapter 2101:10:56.210 : :Chapter 2201:15:03.310 : :Chapter 2301:18:46.211 : :Chapter 24


Трекер:  [ 07-Янв-2016 11:00 ]

  

Скачать .torrent

Размер .torrent файла 14 KB


Размер: 706 MB
Хэш (hash) релиза: cf2f1bb39d397eb7ea36dcb47edf6ae5f8a26bf4

Еще никто не оставлял запись к записи скачать торрент [VIDEO] Сирота казанская . Будь первым!

!Обратная связь