Lovestore at the Corner | Billionaire Boys Club (2018) Taron Egerton, Kevin Spacey - 720p WEB-DL | Télécharger Part 6

Скачать через торрент [VIDEO] Француз бесплатно русская версия torrent активатор

Статистика раздачи
Размер:  877 MB   |    Зарегистрирован:  2 года 6 месяцев   |    .torrent скачан:  23 раза   |   
Раздают:  1  
   
загрузка...
 
Автор Сообщение

Galfimbul

avatar Galfimbul


Француз

Год выпуска: 2003
Страна: Россия
Жанр: комедия, мелодрама
Продолжительность: 01:41:08

Режиссер: Вера Сторожева
Сценарий: Илья Авраменко
Продюсер: Сабина Еремеева, Екатерина Филиппова
Оператор: Григорий Яблочников
Композитор: Андрей Антоненко
Художник: Сергей Тырин, Анна Лазарева
Монтаж: Иван Лебедев

В ролях: Тьери Монфрай, Мария Голубкина, Игорь (Гарик) Сукачев, Екатерина Вуличенко, Станислав Дужников, Михаил Ефремов, Бернар Пассави, Нина Русланова, Сергей Попов, Березуцкая, Владимир Довжик, Наталья Смирнова, Мария Зорина, Андрей Кайков, Антонина Кончакова, Павел Деревянко, Инга Оболдина, Ирина Рахманова

Описание: Он — потомственный аристократ, барон Поль деРуссо — жил в роскошном замке под Парижем и мечтал о настоящем искреннем чувстве. Увы, в его ситуации это было практически невозможно: женщины искали общества Поля исключительно благодаря его богатству и положению в обществе. Единственное спасение для романтической души барона — письма русской девушки Иры, которую нашел через брачное агентство верный камердинер Гийом. Она — скромная переводчица Анна. Закончив МГУ, не стала искать престижную работу в столице и вернулась в родную Глухую Потьму. От безысходности решила выйти замуж за дальнобойщика Ленчика. Единственное, что спасало Анну от тоски — письма, которые она от имени своей подруги Иры писала во Францию. По счастливой случайности судьба решила свести двух героев вместе. И эта встреча изменила не только их жизнь, но и судьбы веек обитателей тихого провинциального городка...

Качество: DVDRip |[url=...3330842]DVD5[/url]|
Формат: MP4

Видео: 640x360, [email protected], AR:1.77, 1080 kbps, 23.976 fps, 0.196 bpp
Аудио: 2ch, 48 kHz, 128 kbps

[b]Релиз:

</a></span></span>
ОбщееУникальный идентификатор : 210674130040285398290856906346653233982 (0x9E7E5C8EE2377C159A48A364F713333E)Полное имя : C:\FRANZUS\Француз 2004\[email protected]Формат : MatroskaВерсия формата : Version 4 / Version 2Размер файла : 423 МбайтПродолжительность : 48 м.Общий поток : 1212 Кбит/секНазвание фильма : Француз / 2004 [email protected]=-Дата кодирования : UTC 2016-01-07 01:33:35Программа кодирования : mkvmerge v8.7.0 ('All of the above') 32bitБиблиотека кодирования : libebml v1.3.3 + libmatroska v1.4.4

ВидеоИдентификатор : 1Формат : AVCФормат/Информация : Advanced Video CodecПрофиль формата : [email protected]Параметр CABAC формата : ДаПараметр ReFrames формата : 9 кадровИдентификатор кодека : V_MPEG4/ISO/AVCПродолжительность : 48 м.Битрейт : 1080 Кбит/секШирина : 640 пикселейВысота : 360 пикселейСоотношение сторон : 16:9Режим частоты кадров : ПостоянныйЧастота кадров : 23,976 (24000/1001) кадра/секЦветовое пространство : YUVСубдискретизация насыщенности : 4:2:0Битовая глубина : 8 битТип развёртки : ПрогрессивнаяБит/(Пиксели*Кадры) : 0.196Размер потока : 377 Мбайт (89%)Заголовок : Rip by nnlabetikБиблиотека кодирования : x264 core 148 r2638 7599210Настройки программы : cabac=1 / ref=9 / deblock=1:-2:-1 / analyse=0x3:0x113 / me=umh / subme=11 / psy=1 / psy_rd=1.00:0.00 / mixed_ref=1 / me_range=32 / chroma_me=1 / trellis=2 / 8x8dct=1 / cqm=0 / deadzone=21,11 / fast_pskip=0 / chroma_qp_offset=-2 / threads=4 / lookahead_threads=1 / sliced_threads=0 / nr=0 / decimate=1 / interlaced=0 / bluray_compat=0 / constrained_intra=0 / bframes=9 / b_pyramid=2 / b_adapt=2 / b_bias=0 / direct=3 / weightb=1 / open_gop=0 / weightp=0 / keyint=240 / keyint_min=23 / scenecut=40 / intra_refresh=0 / rc_lookahead=60 / rc=2pass / mbtree=0 / bitrate=1080 / ratetol=1.0 / qcomp=0.60 / qpmin=0 / qpmax=69 / qpstep=4 / cplxblur=20.0 / qblur=0.5 / vbv_maxrate=20000 / vbv_bufsize=25000 / nal_hrd=none / filler=0 / ip_ratio=1.35 / pb_ratio=1.25 / aq=1:1.00Язык : RussianDefault : ДаForced : НетЦветовой диапазон : LimitedОсновные цвета : BT.709Характеристики трансфера : BT.709Коэффициенты матрицы : BT.709

АудиоИдентификатор : 2Формат : AACФормат/Информация : Advanced Audio CodecПрофиль формата : LCИдентификатор кодека : A_AACПродолжительность : 48 м.Битрейт : 129 Кбит/секКаналы : 2 каналаРасположение каналов : Front: L RЧастота : 48,0 КГцЧастота кадров : 46,875 кадров/сек (1024 spf)Метод сжатия : С потерямиРазмер потока : 45,2 Мбайт (11%)Язык : RussianDefault : ДаForced : Нет

Меню00:00:00.000 : :Chapter 0100:05:52.000 : :Chapter 0200:11:07.901 : :Chapter 0300:15:19.301 : :Chapter 0400:18:30.301 : :Chapter 0500:22:21.102 : :Chapter 0600:24:53.903 : :Chapter 0700:30:45.804 : :Chapter 0800:37:05.904 : :Chapter 0900:39:32.204 : :Chapter 1000:41:54.005 : :Chapter 1100:45:40.606 : :Chapter 1200:48:47.006 : :Chapter 13


Трекер:  [ 07-Янв-2016 05:30 ]

  

Скачать .torrent

Размер .torrent файла 17 KB


Размер: 877 MB
Хэш (hash) релиза: 4cbe14d89a0ca8f02cc961d03612da2856aea4e0

Еще никто не оставлял запись к записи скачать торрент [VIDEO] Француз . Будь первым!

!Обратная связь