999 Nụ Hôn Bá Đạo Của Nam Thần – Chap 107 | Apowersoft Phone Manager V.2.8.9 | Lovely Moments - Project for After Effects (Pond5)

Скачать через торрент [VIDEO] Зона вторжения Rz-9 бесплатно русская версия torrent активатор

Статистика раздачи
Размер:  1.7 GB   |    Зарегистрирован:  2 года 7 месяцев   |    .torrent скачан:  18 раз   |   
Раздают:  1  
   
загрузка...
 
Автор Сообщение

Galfimbul

avatar Galfimbul


Зона вторжения / Rz-9

Год выпуска: 2015
Оригинальное название: Rz-9
Страна: США
Жанр: фантастика, боевик
Возраст: 18+

Режиссер: Иэн Карсон

В ролях: Этан Макдауэлл, Морган Редер, Джошуа Марбл, Чарли Жиллетт, Майкл Гир, Джейсон Коллетт, Гоури Хейден, Кристофер Л. Робинсон, Варда Эпплтон, Рэндолл Бэйкон, Кайл Биллингс, Райан Кэмпбелл, Бен Кузенс, Андрей Диккерт

Описание: В разгар кризиса, вызванного массовыми террористическими атаками, Соединенные Штаты объявили военное положение. Приватизированные вооружённые силы и система беспилотных патрулей полностью контролируют граждан и обнаруживают новые террористические угрозы. Паттерсон Эндикот, компьютерный техник и оператор беспилотника, попадает под подозрение из-за своих религиозных убеждений и начинает сомневаться в нравственности своей деятельности. Его самого и его сестру Саманту преследуют суперсолдаты, называющиеся Стиратели, чтобы захватить их живыми или мертвыми.

Продолжительность: 01:32:17
Перевод: Любительский одноголосый (datynet)
Оригинальная дорожка: нет

Автор рипа:

Качество видео: BDRip 720p Исходник: Blu-Ray Remux (1080p) Формат: mp4
Видео кодек: MPEG-4 AVC Аудио кодек: AAC
Видео: 1280x544 at 23.976 fps, AVC at 2 500 kbps avg, 0.150 bit/pixel
Аудио №1 Rus: 48.0 KHz, AAC, 2 ch, 128.0 Kbps
Субтитры: нет
Навигация по главам: нет
GeneralComplete name : E:\Rz-9.2015_KinoGadget.mp4Format : MPEG-4Format profile : Base MediaCodec ID : isomFile size : 1.70 GiBDuration : 1h 32mnOverall bit rate mode : VariableOverall bit rate : 2 635 KbpsMovie name : Rz-9Performer : Иэн КарсонGenre : ActionContentType : Short FilmRecorded date : 2015Encoded date : UTC 2016-01-06 12:07:11Tagged date : UTC 2016-01-06 12:14:01Writing application : MkvToMp4 [www.mkvtomp4.ru] version: 0.224 (x32)Cover : YesLongDescription : В разгар кризиса, вызванного массовыми террористическими атаками, Соединенные Штаты объявили военное положение. Приватизированные вооружённые силы и система беспилотных патрулей полностью контролируют граждан и обнаруживают новые террористические угрозы. Паттерсон Эндикот, компьютерный техник и оператор беспилотника, попадает под подозрение из-за своих религиозных убеждений и начинает сомневаться в нравственности своей деятельности. Его самого и его сестру Саманту преследуют суперсолдаты, называющиеся Стиратели, чтобы захватить их живыми или мертвыми.HDVideo : Yes

VideoID : 1Format : AVCFormat/Info : Advanced Video CodecFormat profile : [email protected] settings, CABAC : YesFormat settings, ReFrames : 8 framesCodec ID : avc1Codec ID/Info : Advanced Video CodingDuration : 1h 32mnBit rate : 2 500 KbpsMaximum bit rate : 18.3 MbpsWidth : 1 280 pixelsHeight : 544 pixelsDisplay aspect ratio : 2.35:1Frame rate mode : ConstantFrame rate : 23.976 fpsColor space : YUVChroma subsampling : 4:2:0Bit depth : 8 bitsScan type : ProgressiveBits/(Pixel*Frame) : 0.150Stream size : 1.61 GiB (95%)Writing library : x264 core 146 r2538 121396cEncoding settings : cabac=1 / ref=8 / deblock=1:-1:-1 / analyse=0x3:0x133 / me=umh / subme=7 / psy=1 / psy_rd=1.00:0.00 / mixed_ref=1 / me_range=16 / chroma_me=1 / trellis=2 / 8x8dct=1 / cqm=0 / deadzone=21,11 / fast_pskip=1 / chroma_qp_offset=-2 / threads=3 / lookahead_threads=1 / sliced_threads=0 / nr=0 / decimate=1 / interlaced=0 / bluray_compat=0 / constrained_intra=0 / bframes=3 / b_pyramid=2 / b_adapt=2 / b_bias=0 / direct=3 / weightb=1 / open_gop=0 / weightp=2 / keyint=240 / keyint_min=23 / scenecut=40 / intra_refresh=0 / rc_lookahead=60 / rc=2pass / mbtree=1 / bitrate=2500 / ratetol=1.0 / qcomp=0.60 / qpmin=0 / qpmax=69 / qpstep=4 / cplxblur=20.0 / qblur=0.5 / ip_ratio=1.40 / aq=1:1.00Language : EnglishEncoded date : UTC 2016-01-06 12:07:11Tagged date : UTC 2016-01-06 12:09:38

AudioID : 2Format : AACFormat/Info : Advanced Audio CodecFormat profile : LCCodec ID : 40Duration : 1h 32mnBit rate mode : VariableBit rate : 128 KbpsMaximum bit rate : 135 KbpsChannel count : 2 channelsChannel positions : Front: L RSampling rate : 48.0 KHzCompression mode : LossyStream size : 84.5 MiB (5%)Language : RussianEncoded date : UTC 2016-01-06 12:09:16Tagged date : UTC 2016-01-06 12:09:38
[url=...39840292] [/url]

Трекер:  [ 06-Янв-2016 14:30 ]

  

Скачать .torrent

Размер .torrent файла 17 KB


Размер: 1.7 GB
Хэш (hash) релиза: a6a14c8088f02d8f9dc92d1e089bc840f116922c

Еще никто не оставлял запись к записи скачать торрент [VIDEO] Зона вторжения Rz-9 . Будь первым!

!Обратная связь