Ghost(Be with Me) | Noces / L'été | School of Rock

Скачать через торрент [VIDEO] Боец The Fighter бесплатно русская версия torrent активатор

Статистика раздачи
Размер:  2 GB   |    Зарегистрирован:  2 года 6 месяцев   |    .torrent скачан:  18 раз   |   
Раздают:  1  
   
загрузка...
 
Автор Сообщение

Galfimbul

avatar Galfimbul


Боец / The Fighter«Every dream deserves a fighting chance»
Год выпуска: 2010
Оригинальное название: The Fighter
Страна: США
Жанр: драма, биография, спорт
Возраст: 16+

Режиссер: Дэвид О. Расселл

В ролях: Марк Уолберг, Кристиан Бэйл, Эми Адамс, Мелисса Лео, Микки О'Киф, Джек МакГи, Мелисса МакМикин, Бьянка Хантер, Эрика МакДермотт, Джилл Квигг, Дендри Тейлор, О’Брайэн Кейт Би, Дженна Ламия, Фрэнк Рензулли, Пол Кэмпбелл, Кэйтлин Двайер, Шанти Сок, Росс Бикелл, Шон Мэлоун, Хосе Антонио Ривера, Ричард Фаррелл, Мэттью Муцио, Арт Рамальо, Шуга Рэй Леонард, Джексон Николл, Элисон Фолланд, Шон Патрик Доэрти, Сью Костильо

Описание: Невероятная, но реальная история пути к званию чемпиона мира боксера Микки Уорда по кличке «Ирландец». Восхождение Уорда было похоже на восхождение легендарного Рокки. Парень из народа, между боями он трудился на дорожных работах.

Пережив череду неудач и поражений, Микки сумел снова вернуться на ринг, когда его тренером стал сводный брат Дикки Эклунд, бывший боксер, карьера которого оборвалась из-за пристрастия к наркотикам. Помощь брата, любовь официантки Шарлин, забота матери и несгибаемая воля к победе позволили Уорду взойти на мировой пьедестал…

Продолжительность:
Перевод: 01:55:38
Оригинальная дорожка: нет

Автор рипа:

Качество видео: BDRip Исходник: Blu-Ray Remux (1080p) Формат: mp4
Видео кодек: MPEG-4 AVC Аудио кодек: AAC
Видео: 1280x536 at 23.976 fps, AVC at 2 345 kbps avg, 0.143 bit/pixel
Аудио №1 Rus: 48.0 KHz, AAC, 2 ch, 128.0 Kbps
Субтитры: нет
Навигация по главам: нет
[05.01.2016 17:16:34] avs [info]: 1280x536p 1:1 @ 24000/1001 fps (cfr)
[05.01.2016 17:16:34] x264 [info]: using SAR=1/1
[05.01.2016 17:16:34] x264 [info]: using cpu capabilities: MMX2 SSE2Fast SSSE3 Cache64
[05.01.2016 17:16:34] x264 [info]: profile High, level 4.1
[06.01.2016 11:36:24] x264 [info]: frame I:1292 Avg QP:20.42 size: 84213
[06.01.2016 11:36:24] x264 [info]: frame P:47507 Avg QP:23.24 size: 20497
[06.01.2016 11:36:24] x264 [info]: frame B:117559 Avg QP:24.70 size: 8096
[06.01.2016 11:36:24] x264 [info]: consecutive B-frames: 1.8% 3.8% 24.7% 69.7%
[06.01.2016 11:36:24] x264 [info]: mb I I16..4: 7.1% 82.6% 10.3%
[06.01.2016 11:36:24] x264 [info]: mb P I16..4: 1.9% 10.5% 0.9% P16..4: 48.0% 13.5% 11.4% 0.2% 0.0% skip:13.6%
[06.01.2016 11:36:24] x264 [info]: mb B I16..4: 0.2% 1.5% 0.1% B16..8: 49.0% 6.7% 1.5% direct: 4.7% skip:36.3% L0:44.6% L1:50.4% BI: 5.0%
[06.01.2016 11:36:24] x264 [info]: 8x8 transform intra:80.4% inter:71.9%
[06.01.2016 11:36:24] x264 [info]: direct mvs spatial:99.9% temporal:0.1%
[06.01.2016 11:36:24] x264 [info]: coded y,uvDC,uvAC intra: 79.9% 73.5% 36.5% inter: 21.7% 20.7% 1.4%
[06.01.2016 11:36:24] x264 [info]: i16 v,h,dc,p: 22% 23% 8% 48%
[06.01.2016 11:36:24] x264 [info]: i8 v,h,dc,ddl,ddr,vr,hd,vl,hu: 11% 8% 5% 10% 16% 14% 14% 11% 12%
[06.01.2016 11:36:24] x264 [info]: i4 v,h,dc,ddl,ddr,vr,hd,vl,hu: 11% 10% 3% 9% 16% 15% 14% 11% 12%
[06.01.2016 11:36:24] x264 [info]: i8c dc,h,v,p: 35% 27% 19% 19%
[06.01.2016 11:36:24] x264 [info]: Weighted P-Frames: Y:3.7% UV:1.7%
[06.01.2016 11:36:24] x264 [info]: ref P L0: 44.7% 13.1% 19.3% 6.2% 5.8% 4.0% 3.8% 2.3% 0.8% 0.0%
[06.01.2016 11:36:24] x264 [info]: ref B L0: 73.0% 12.8% 6.4% 3.1% 2.4% 1.6% 0.7%
[06.01.2016 11:36:24] x264 [info]: ref B L1: 93.2% 6.8%
[06.01.2016 11:36:24] x264 [info]: kb/s:2345.48
[06.01.2016 11:36:24] encoded 166358 frames, 2.52 fps, 2345.48 kb/s
GeneralComplete name : E:\Boec.2010_KinoGadget.mp4Format : MPEG-4Format profile : Base MediaCodec ID : isomFile size : 2.00 GiBDuration : 1h 55mnOverall bit rate mode : VariableOverall bit rate : 2 482 KbpsMovie name : Боец | KinoGadgetPerformer : Дэвид О. РасселлGenre : Drama, SportsContentType : Short FilmRecorded date : 2010Encoded date : UTC 2016-01-06 08:47:49Tagged date : UTC 2016-01-06 09:07:30Writing application : MkvToMp4 [www.mkvtomp4.ru] version: 0.224 (x32)Cover : YesContentRating : mpaa|R|400|

LongDescription : Невероятная, но реальная история пути к званию чемпиона мира боксера Микки Уорда по кличке «Ирландец». Восхождение Уорда было похоже на восхождение легендарного Рокки. Парень из народа, между боями он трудился на дорожных работах. / / Пережив череду неудач и поражений, Микки сумел снова вернуться на ринг, когда его тренером стал сводный брат Дикки Эклунд, бывший боксер, карьера которого оборвалась из-за пристрастия к наркотикам. Помощь брата, любовь официантки Шарлин, забота матери и несгибаемая воля к победе позволили Уорду взойти на мировой пьедестал…HDVideo : Yes

VideoID : 1Format : AVCFormat/Info : Advanced Video CodecFormat profile : [email protected] settings, CABAC : YesFormat settings, ReFrames : 8 framesCodec ID : avc1Codec ID/Info : Advanced Video CodingDuration : 1h 55mnBit rate : 2 345 KbpsMaximum bit rate : 14.4 MbpsWidth : 1 280 pixelsHeight : 536 pixelsDisplay aspect ratio : 2.40:1Frame rate mode : ConstantFrame rate : 23.976 fpsColor space : YUVChroma subsampling : 4:2:0Bit depth : 8 bitsScan type : ProgressiveBits/(Pixel*Frame) : 0.143Stream size : 1.89 GiB (94%)Writing library : x264 core 148 r2638 7599210Encoding settings : cabac=1 / ref=8 / deblock=1:-2:-1 / analyse=0x3:0x133 / me=umh / subme=9 / psy=1 / psy_rd=1.00:0.15 / mixed_ref=1 / me_range=16 / chroma_me=1 / trellis=2 / 8x8dct=1 / cqm=0 / deadzone=21,11 / fast_pskip=1 / chroma_qp_offset=-3 / threads=3 / lookahead_threads=1 / sliced_threads=0 / nr=0 / decimate=1 / interlaced=0 / bluray_compat=0 / constrained_intra=0 / bframes=3 / b_pyramid=2 / b_adapt=2 / b_bias=0 / direct=3 / weightb=1 / open_gop=0 / weightp=2 / keyint=240 / keyint_min=23 / scenecut=40 / intra_refresh=0 / rc_lookahead=60 / rc=crf / mbtree=1 / crf=22.0 / qcomp=0.60 / qpmin=0 / qpmax=69 / qpstep=4 / vbv_maxrate=62500 / vbv_bufsize=78125 / crf_max=0.0 / nal_hrd=none / filler=0 / ip_ratio=1.40 / aq=1:1.00Language : EnglishEncoded date : UTC 2016-01-06 08:47:49Tagged date : UTC 2016-01-06 08:49:47

AudioID : 2Format : AACFormat/Info : Advanced Audio CodecFormat profile : LCCodec ID : 40Duration : 1h 55mnBit rate mode : VariableBit rate : 128 KbpsMaximum bit rate : 135 KbpsChannel count : 2 channelsChannel positions : Front: L RSampling rate : 48.0 KHzCompression mode : LossyStream size : 106 MiB (5%)Language : RussianEncoded date : UTC 2016-01-06 08:49:16Tagged date : UTC 2016-01-06 08:49:47
[url=...39840292] [/url]

Трекер:  [ 06-Янв-2016 12:00 ]

  

Скачать .torrent

Размер .torrent файла 10 KB


Размер: 2 GB
Хэш (hash) релиза: cf5ba66cd8eecccc2806971089789ad193021d13

Еще никто не оставлял запись к записи скачать торрент [VIDEO] Боец The Fighter . Будь первым!

!Обратная связь