Weekly Idol Episode 280 | Świat według Bundych / Marr... | Lost Girl

Скачать через торрент [VIDEO] Прогулки с динозаврами Walking with Dinosaurs бесплатно русская версия torrent активатор

Статистика раздачи
Размер:  1.44 GB   |    Зарегистрирован:  2 года 6 месяцев   |    .torrent скачан:  30 раз   |   
Раздают:  1  
   
загрузка...
 
Автор Сообщение

Galfimbul

avatar Galfimbul


Прогулки с динозаврами / Walking with Dinosaurs«Величайшее приключение за 70 миллионов лет»
Год выпуска: 2013
Оригинальное название: Walking with Dinosaurs
Страна: США, Великобритания, Австралия, Индия
Жанр: семейный
Возраст: 0+

Режиссер: Бэрри Кук, Нил Найтингейл

В ролях: Чарли Роу, Карл Урбан, Ангури Райс, Джон Легуизамо, Джастин Лонг, Скайлер Стоун, Тия Сиркар, Клэй Сэвадж, Джуд Тинсели, Мэри Мэтилин Маусер

Описание: «Прогулки с динозаврами» — это увлекательное путешествие, созданное по инновационной технологии CGI. Мы увидим, как выглядели динозавры, как они жили и с какими опасностями им пришлось столкнуться. Главный герой истории — храбрый динозаврик Патчи, он самый маленький в семье, но именно ему предстоит стать лидером и спасти своих сородичей.

Продолжительность: 01:16:55
Перевод: Дублированный [Лицензия]
Оригинальная дорожка: нет

Автор рипа:

Качество видео: BDRip Исходник: Blu-Ray Remux (1080p) Формат: mp4
Видео кодек: MPEG-4 AVC Аудио кодек: AAC
Видео: 1280x536 at 23.976 fps, AVC at 2 535 kbps avg, 0.154 bit/pixel
Аудио №1 Rus: 48.0 KHz, AAC, 2 ch, 128.0 Kbps
Субтитры: нет
Навигация по главам: нет
<ol class="post-ul">
Вырезаны титры
</ol>
[04.01.2016 16:47:27] avs [info]: 1280x536p 1:1 @ 24000/1001 fps (cfr)
[04.01.2016 16:47:27] x264 [info]: using SAR=1/1
[04.01.2016 16:47:27] x264 [info]: using cpu capabilities: MMX2 SSE2Fast SSSE3 Cache64
[04.01.2016 16:47:27] x264 [info]: profile High, level 4.1
[05.01.2016 9:02:38] x264 [info]: frame I:995 Avg QP:18.99 size:149280
[05.01.2016 9:02:40] x264 [info]: frame P:26268 Avg QP:22.54 size: 29658
[05.01.2016 9:02:40] x264 [info]: frame B:83403 Avg QP:26.89 size: 6414
[05.01.2016 9:02:40] x264 [info]: consecutive B-frames: 2.1% 3.2% 9.1% 35.0% 22.4% 28.2%
[05.01.2016 9:02:40] x264 [info]: mb I I16..4: 5.2% 77.6% 17.2%
[05.01.2016 9:02:40] x264 [info]: mb P I16..4: 1.9% 12.7% 1.0% P16..4: 38.8% 13.4% 14.7% 1.5% 0.5% skip:15.4%
[05.01.2016 9:02:40] x264 [info]: mb B I16..4: 0.3% 1.8% 0.2% B16..8: 28.2% 6.6% 2.0% direct: 2.8% skip:58.1% L0:40.0% L1:43.6% BI:16.4%
[05.01.2016 9:02:40] x264 [info]: 8x8 transform intra:79.6% inter:65.0%
[05.01.2016 9:02:40] x264 [info]: direct mvs spatial:100.0% temporal:0.0%
[05.01.2016 9:02:40] x264 [info]: coded y,uvDC,uvAC intra: 77.0% 69.1% 31.0% inter: 16.6% 12.9% 1.9%
[05.01.2016 9:02:40] x264 [info]: i16 v,h,dc,p: 10% 18% 9% 63%
[05.01.2016 9:02:40] x264 [info]: i8 v,h,dc,ddl,ddr,vr,hd,vl,hu: 9% 11% 6% 8% 13% 10% 15% 10% 17%
[05.01.2016 9:02:40] x264 [info]: i4 v,h,dc,ddl,ddr,vr,hd,vl,hu: 10% 13% 7% 7% 13% 10% 14% 9% 17%
[05.01.2016 9:02:40] x264 [info]: i8c dc,h,v,p: 33% 33% 16% 18%
[05.01.2016 9:02:40] x264 [info]: Weighted P-Frames: Y:4.4% UV:2.3%
[05.01.2016 9:02:40] x264 [info]: ref P L0: 52.4% 16.7% 10.7% 4.9% 3.3% 3.1% 2.3% 1.6% 1.3% 1.3% 1.1% 1.3% 0.2% 0.0%
[05.01.2016 9:02:40] x264 [info]: ref B L0: 83.3% 6.5% 3.7% 1.6% 1.3% 1.0% 0.9% 0.5% 0.5% 0.3% 0.2%
[05.01.2016 9:02:40] x264 [info]: ref B L1: 95.2% 4.8%
[05.01.2016 9:02:40] x264 [info]: kb/s:2534.93
[05.01.2016 9:02:40] encoded 110666 frames, 1.89 fps, 2534.93 kb/s
GeneralComplete name : E:\Progulki_s_dinozavrami.2013_KinoGadget.mp4Format : MPEG-4Format profile : Base MediaCodec ID : isomFile size : 1.44 GiBDuration : 1h 16mnOverall bit rate mode : VariableOverall bit rate : 2 672 KbpsMovie name : Прогулки с динозаврамиPerformer : Бэрри Кук, Нил НайтингейлGenre : Adventure, Animation, FamilyContentType : Short FilmRecorded date : 2013Encoded date : UTC 2016-01-05 07:49:19Tagged date : UTC 2016-01-05 07:55:24Writing application : MkvToMp4 [www.mkvtomp4.ru] version: 0.224 (x32)Cover : YesContentRating : mpaa|PG|200|

LongDescription : «Прогулки с динозаврами» — это увлекательное путешествие, созданное по инновационной технологии CGI. Мы увидим, как выглядели динозавры, как они жили и с какими опасностями им пришлось столкнуться. Главный герой истории — храбрый динозаврик Патчи, он самый маленький в семье, но именно ему предстоит стать лидером и спасти своих сородичей.HDVideo : Yes

VideoID : 1Format : AVCFormat/Info : Advanced Video CodecFormat profile : [email protected] settings, CABAC : YesFormat settings, ReFrames : 12 framesCodec ID : avc1Codec ID/Info : Advanced Video CodingDuration : 1h 16mnBit rate : 2 535 KbpsMaximum bit rate : 15.2 MbpsWidth : 1 280 pixelsHeight : 536 pixelsDisplay aspect ratio : 2.40:1Frame rate mode : ConstantFrame rate : 23.976 fpsColor space : YUVChroma subsampling : 4:2:0Bit depth : 8 bitsScan type : ProgressiveBits/(Pixel*Frame) : 0.154Stream size : 1.36 GiB (95%)Writing library : x264 core 148 r2638 7599210Encoding settings : cabac=1 / ref=12 / deblock=1:1:1 / analyse=0x3:0x133 / me=umh / subme=9 / psy=1 / psy_rd=0.40:0.00 / mixed_ref=1 / me_range=16 / chroma_me=1 / trellis=2 / 8x8dct=1 / cqm=0 / deadzone=21,11 / fast_pskip=1 / chroma_qp_offset=-2 / threads=3 / lookahead_threads=1 / sliced_threads=0 / nr=0 / decimate=1 / interlaced=0 / bluray_compat=0 / constrained_intra=0 / bframes=5 / b_pyramid=2 / b_adapt=2 / b_bias=0 / direct=3 / weightb=1 / open_gop=0 / weightp=2 / keyint=240 / keyint_min=23 / scenecut=40 / intra_refresh=0 / rc_lookahead=60 / rc=crf / mbtree=1 / crf=22.0 / qcomp=0.60 / qpmin=0 / qpmax=69 / qpstep=4 / vbv_maxrate=62500 / vbv_bufsize=78125 / crf_max=0.0 / nal_hrd=none / filler=0 / ip_ratio=1.40 / aq=1:1.00Language : EnglishEncoded date : UTC 2016-01-05 07:49:19Tagged date : UTC 2016-01-05 07:50:18

AudioID : 2Format : AACFormat/Info : Advanced Audio CodecFormat profile : LCCodec ID : 40Duration : 1h 16mnBit rate mode : VariableBit rate : 128 KbpsMaximum bit rate : 135 KbpsChannel count : 2 channelsChannel positions : Front: L RSampling rate : 48.0 KHzCompression mode : LossyStream size : 70.4 MiB (5%)Language : RussianEncoded date : UTC 2016-01-05 07:50:06Tagged date : UTC 2016-01-05 07:50:18
[url=...39840292] [/url]

Трекер:  [ 05-Янв-2016 13:30 ]

  

Скачать .torrent

Размер .torrent файла 15 KB


Размер: 1.44 GB
Хэш (hash) релиза: f39af7b53dd4b66a83e43825ddd9eed43d14db32

Еще никто не оставлял запись к записи скачать торрент [VIDEO] Прогулки с динозаврами Walking with Dinosaurs . Будь первым!

!Обратная связь