Pokemon GO! and Indonesia | Baixar toque para celular | Hệ Thống Chế Tạo Nữ Thần

Скачать через торрент [VIDEO] Хочу в тюрьму бесплатно русская версия torrent активатор

Статистика раздачи
Размер:  813 MB   |    Зарегистрирован:  2 года 6 месяцев   |    .torrent скачан:  43 раза   |   
Раздают:  1  
   
загрузка...
 
Автор Сообщение

Galfimbul

avatar Galfimbul


Хочу в тюрьму

Год выпуска: 1998
Страна: Россия
Жанр: комедия
Продолжительность: 01:33:58

Режиссер: Алла Сурикова
Сценарий: Владимир Еремин
Продюсер: Евгений Гиндилис, Виталий Кошман, Игорь Толстунов
Оператор: Григорий Беленький
Композитор: Виктор Лебедев
Художник: Владимир Филиппов, Татьяна Разумовская
Монтаж: Инесса Брожовская

В ролях: Владимир Ильин, Наталья Гундарева, Алла Клюка, Сергей Баталов, Борис Щербаков, Кира Сурикова, Олег Бочаров, Наталья Коренченко, Юлия Гусева, Егор Акмен, Игорь Мигунов, Михаил Петровский, Чип Брэй, Юрий Думчев, Максим Бритвенков, Анатолий Горин, Ирина Кравкина, Анвар Либабов, Евгений Гиндилис, Федор Смирнов, Александр Кузнецов

Описание: Россия всегда была богата талантливыми людьми. В большинстве своем они отличались редкостным простодушием. Вот и Семен Лямкин, разработчик и конструктор технического чуда в виде канареечного «Запорожца» легко обгоняющего «Мерседесы» и плавающего не хуже «моторки» попал в неприятную историю. Когда с его помощью один предприимчивый «работодатель» ограбил банк, Семен не стал дожидаться ареста, а, сев в «Запорожец» отправился в тюрьму. Но не российскую, а. .. голландскую, поскольку, по слухам, за бугром кутузки намного комфортабельнее.

Качество: DVDRip |[url=...320228]DVD5[/url]|

Формат видео: MKV
Формат: MP4

Видео: 480x360, [email protected], AR:1.33, 1080 kbps, 25.000 fps, 0.250 bpp
Аудио: 2ch, 48 kHz, 128 kbps

[b]Релиз:

</a></span></span>
ОбщееУникальный идентификатор : 235240042322434705312952168655865755135 (0xB0F9958BB0F7B1CB9B351E2C5DA3B5FF)Полное имя : ...\Хочу в тюрьму 1998\[email protected]Формат : MatroskaВерсия формата : Version 4 / Version 2Размер файла : 813 МбайтПродолжительность : 1 ч. 33 м.Общий поток : 1210 Кбит/секНазвание фильма : Хочу в тюрьму / 1998 [email protected]=-Дата кодирования : UTC 2016-01-05 06:36:06Программа кодирования : mkvmerge v8.7.0 ('All of the above') 32bitБиблиотека кодирования : libebml v1.3.3 + libmatroska v1.4.4

ВидеоИдентификатор : 1Формат : AVCФормат/Информация : Advanced Video CodecПрофиль формата : [email protected]Параметр CABAC формата : ДаПараметр ReFrames формата : 9 кадровИдентификатор кодека : V_MPEG4/ISO/AVCПродолжительность : 1 ч. 33 м.Битрейт : 1080 Кбит/секШирина : 480 пикселейВысота : 360 пикселейСоотношение сторон : 4:3Режим частоты кадров : ПостоянныйЧастота кадров : 25,000 кадров/секЦветовое пространство : YUVСубдискретизация насыщенности : 4:2:0Битовая глубина : 8 битТип развёртки : ПрогрессивнаяБит/(Пиксели*Кадры) : 0.250Размер потока : 726 Мбайт (89%)Заголовок : Rip by nnlabetikБиблиотека кодирования : x264 core 146 r2538 121396cНастройки программы : cabac=1 / ref=9 / deblock=1:-2:-1 / analyse=0x3:0x113 / me=umh / subme=10 / psy=1 / psy_rd=1.00:0.20 / mixed_ref=1 / me_range=32 / chroma_me=1 / trellis=2 / 8x8dct=1 / cqm=0 / deadzone=21,11 / fast_pskip=0 / chroma_qp_offset=-3 / threads=4 / lookahead_threads=1 / sliced_threads=0 / nr=0 / decimate=1 / interlaced=0 / bluray_compat=0 / constrained_intra=0 / bframes=11 / b_pyramid=2 / b_adapt=2 / b_bias=0 / direct=3 / weightb=1 / open_gop=0 / weightp=0 / keyint=250 / keyint_min=25 / scenecut=40 / intra_refresh=0 / rc_lookahead=60 / rc=2pass / mbtree=1 / bitrate=1080 / ratetol=1.0 / qcomp=0.60 / qpmin=0 / qpmax=69 / qpstep=4 / cplxblur=20.0 / qblur=0.5 / vbv_maxrate=14000 / vbv_bufsize=14000 / nal_hrd=none / filler=0 / ip_ratio=1.35 / aq=1:1.00Язык : RussianDefault : ДаForced : НетЦветовой диапазон : LimitedОсновные цвета : BT.709Характеристики трансфера : BT.709Коэффициенты матрицы : BT.709

АудиоИдентификатор : 2Формат : AACФормат/Информация : Advanced Audio CodecПрофиль формата : LCИдентификатор кодека : A_AACПродолжительность : 1 ч. 33 м.Битрейт : 128 Кбит/секКаналы : 2 каналаРасположение каналов : Front: L RЧастота : 48,0 КГцЧастота кадров : 46,875 кадров/сек (1024 spf)Метод сжатия : С потерямиРазмер потока : 85,8 Мбайт (11%)Язык : RussianDefault : ДаForced : Нет

Меню00:00:00.000 : :Chapter 0100:02:28.200 : :Chapter 0200:07:50.600 : :Chapter 0300:12:30.360 : :Chapter 0400:15:55.240 : :Chapter 0500:20:10.560 : :Chapter 0600:26:39.520 : :Chapter 0700:32:30.520 : :Chapter 0800:36:45.840 : :Chapter 0900:41:58.880 : :Chapter 1000:45:51.840 : :Chapter 1100:49:34.920 : :Chapter 1200:53:29.960 : :Chapter 1300:55:10.840 : :Chapter 1400:58:32.080 : :Chapter 1501:01:01.320 : :Chapter 1601:06:27.880 : :Chapter 1701:12:26.680 : :Chapter 1801:16:18.080 : :Chapter 1901:20:49.520 : :Chapter 2001:23:52.040 : :Chapter 2101:26:31.160 : :Chapter 2201:29:14.960 : :Chapter 2301:31:21.840 : :Chapter 2401:33:57.840 : :Chapter 25


Трекер:  [ 05-Янв-2016 10:00 ]

  

Скачать .torrent

Размер .torrent файла 16 KB


Размер: 813 MB
Хэш (hash) релиза: bcdd1ab81dc67df7ed7ffb80d7a8187c268f6036

Еще никто не оставлял запись к записи скачать торрент [VIDEO] Хочу в тюрьму . Будь первым!

!Обратная связь