Joe Lynch | Great Rail Restorations S01E01 480p x264-mSD 45 minutes | Rebel: Thief Who ...

Скачать через торрент [VIDEO] Переправа The Crossing бесплатно русская версия torrent активатор

Статистика раздачи
Размер:  2.53 GB   |    Зарегистрирован:  2 года 6 месяцев   |    .torrent скачан:  19 раз   |   
Раздают:  1  
   
загрузка...
 
Автор Сообщение

Galfimbul

avatar Galfimbul


Переправа / The Crossing«Самое сложное время, чтобы любить»
Год выпуска: 2014
Оригинальное название: The Crossing
Страна: Китай, США, Гонконг
Жанр: драма
Возраст: 16+

Режиссер: Джон Ву

В ролях: Такеши Канеширо, Цзыи Чжан, Хе Гё Сон, Сяо Мин Хуан, Тун Давэй, Масами Нагасава, Шан Конг, Джек Као, Хитоми Куроки, Боуи Лам, Вэй Ли, Хайлу Цинь, Аарон Шанг

Описание: В центре повествования три пары, чьи судьбы драматически связаны с событиями, которые разворачиваются на фоне военных действий. Фильм основан на реальной трагедии потопления корабля «Тайпин», произошедшем в 1949 году и унесший жизни более 1500 пассажиров и экипажа.

Продолжительность: 02:08:14
Перевод: Дублированный [iTunes]
Оригинальная дорожка: нет

Автор рипа:

Качество видео: BDRip Исходник: Blu-Ray Remux (1080p) Формат: mp4
Видео кодек: MPEG-4 AVC Аудио кодек: AAC
Видео: 1280x536 at 24.000 fps, AVC at 2 689 kbps avg, 0.163 bit/pixel
Аудио №1 Rus: 48.0 KHz, AAC, 2 ch, 128.0 Kbps
Субтитры: нет
Навигация по главам: нет
03.01.2016 18:38:01] avs [info]: 1280x536p 1:1 @ 24/1 fps (cfr)
[03.01.2016 18:38:01] x264 [info]: using SAR=1/1
[03.01.2016 18:38:01] x264 [info]: using cpu capabilities: MMX2 SSE2Fast SSSE3 Cache64
[03.01.2016 18:38:01] x264 [info]: profile High, level 4.1
[04.01.2016 11:50:25] x264 [info]: frame I:1747 Avg QP:18.62 size: 89606
[04.01.2016 11:50:27] x264 [info]: frame P:52155 Avg QP:21.87 size: 25995
[04.01.2016 11:50:27] x264 [info]: frame B:130770 Avg QP:24.02 size: 8215
[04.01.2016 11:50:27] x264 [info]: consecutive B-frames: 2.3% 3.9% 17.7% 76.1%
[04.01.2016 11:50:27] x264 [info]: mb I I16..4: 11.0% 71.6% 17.4%
[04.01.2016 11:50:27] x264 [info]: mb P I16..4: 1.5% 10.1% 1.3% P16..4: 45.0% 15.2% 13.4% 0.6% 0.2% skip:12.6%
[04.01.2016 11:50:27] x264 [info]: mb B I16..4: 0.1% 1.3% 0.2% B16..8: 45.4% 7.4% 2.0% direct: 4.4% skip:39.2% L0:43.4% L1:48.7% BI: 7.9%
[04.01.2016 11:50:27] x264 [info]: 8x8 transform intra:77.0% inter:69.3%
[04.01.2016 11:50:27] x264 [info]: direct mvs spatial:100.0% temporal:0.0%
[04.01.2016 11:50:27] x264 [info]: coded y,uvDC,uvAC intra: 81.4% 75.6% 40.8% inter: 21.3% 23.3% 1.8%
[04.01.2016 11:50:27] x264 [info]: i16 v,h,dc,p: 27% 23% 9% 41%
[04.01.2016 11:50:27] x264 [info]: i8 v,h,dc,ddl,ddr,vr,hd,vl,hu: 10% 8% 6% 10% 15% 13% 15% 11% 13%
[04.01.2016 11:50:27] x264 [info]: i4 v,h,dc,ddl,ddr,vr,hd,vl,hu: 10% 8% 3% 9% 16% 14% 15% 11% 14%
[04.01.2016 11:50:27] x264 [info]: i8c dc,h,v,p: 38% 25% 19% 18%
[04.01.2016 11:50:27] x264 [info]: Weighted P-Frames: Y:9.3% UV:5.7%
[04.01.2016 11:50:27] x264 [info]: ref P L0: 49.9% 15.2% 15.9% 5.8% 4.6% 3.3% 2.9% 1.9% 0.5% 0.0%
[04.01.2016 11:50:27] x264 [info]: ref B L0: 80.6% 9.8% 4.4% 2.1% 1.7% 1.0% 0.5%
[04.01.2016 11:50:27] x264 [info]: ref B L1: 94.8% 5.2%
[04.01.2016 11:50:27] x264 [info]: kb/s:2689.28
[04.01.2016 11:50:27] encoded 184672 frames, 2.98 fps, 2689.28 kb/s
GeneralComplete name : E:\Pereprava.2014_KinoGadget.mp4Format : MPEG-4Format profile : Base MediaCodec ID : isomFile size : 2.53 GiBDuration : 2h 8mnOverall bit rate mode : VariableOverall bit rate : 2 826 KbpsMovie name : ПереправаPerformer : Джон ВуGenre : DramaContentType : Short FilmRecorded date : 2014Encoded date : UTC 2016-01-04 11:41:01Tagged date : UTC 2016-01-04 11:46:35Writing application : MkvToMp4 [www.mkvtomp4.ru] version: 0.224 (x32)Cover : YesLongDescription : В центре повествования три пары, чьи судьбы драматически связаны с событиями, которые разворачиваются на фоне военных действий. Фильм основан на реальной трагедии потопления корабля «Тайпин», произошедшем в 1949 году и унесший жизни более 1500 пассажиров и экипажа.HDVideo : Yes

VideoID : 1Format : AVCFormat/Info : Advanced Video CodecFormat profile : [email protected] settings, CABAC : YesFormat settings, ReFrames : 8 framesCodec ID : avc1Codec ID/Info : Advanced Video CodingDuration : 2h 8mnBit rate : 2 689 KbpsMaximum bit rate : 21.3 MbpsWidth : 1 280 pixelsHeight : 536 pixelsDisplay aspect ratio : 2.40:1Frame rate mode : ConstantFrame rate : 24.000 fpsColor space : YUVChroma subsampling : 4:2:0Bit depth : 8 bitsScan type : ProgressiveBits/(Pixel*Frame) : 0.163Stream size : 2.41 GiB (95%)Writing library : x264 core 148 r2638 7599210Encoding settings : cabac=1 / ref=8 / deblock=1:-1:-1 / analyse=0x3:0x133 / me=umh / subme=9 / psy=1 / psy_rd=1.00:0.15 / mixed_ref=1 / me_range=16 / chroma_me=1 / trellis=2 / 8x8dct=1 / cqm=0 / deadzone=21,11 / fast_pskip=1 / chroma_qp_offset=-3 / threads=3 / lookahead_threads=1 / sliced_threads=0 / nr=0 / decimate=1 / interlaced=0 / bluray_compat=0 / constrained_intra=0 / bframes=3 / b_pyramid=2 / b_adapt=2 / b_bias=0 / direct=3 / weightb=1 / open_gop=0 / weightp=2 / keyint=240 / keyint_min=24 / scenecut=40 / intra_refresh=0 / rc_lookahead=60 / rc=crf / mbtree=1 / crf=21.0 / qcomp=0.60 / qpmin=0 / qpmax=69 / qpstep=4 / vbv_maxrate=62500 / vbv_bufsize=78125 / crf_max=0.0 / nal_hrd=none / filler=0 / ip_ratio=1.40 / aq=1:1.00Language : EnglishEncoded date : UTC 2016-01-04 11:41:01Tagged date : UTC 2016-01-04 11:42:41

AudioID : 2Format : AACFormat/Info : Advanced Audio CodecFormat profile : LCCodec ID : 40Duration : 2h 8mnBit rate mode : VariableBit rate : 128 KbpsMaximum bit rate : 135 KbpsChannel count : 2 channelsChannel positions : Front: L RSampling rate : 48.0 KHzCompression mode : LossyStream size : 117 MiB (5%)Language : RussianEncoded date : UTC 2016-01-04 11:42:24Tagged date : UTC 2016-01-04 11:42:41
[url=...39840292] [/url]

Трекер:  [ 04-Янв-2016 14:00 ]

  

Скачать .torrent

Размер .torrent файла 13 KB


Размер: 2.53 GB
Хэш (hash) релиза: dde5d6a60814f20e5ee7b46e5d643a8a6ef9daf0

Еще никто не оставлял запись к записи скачать торрент [VIDEO] Переправа The Crossing . Будь первым!

!Обратная связь