Zoo 2015 | Анимация / 3D / Flash | [Народная песня, казачь...

Скачать через торрент [VIDEO] Агенты А.Н.К.Л. The Man from U.N.C.L.E. бесплатно русская версия torrent активатор

Статистика раздачи
Размер:  1.87 GB   |    Зарегистрирован:  2 года 6 месяцев   |    .torrent скачан:  81 раз   |   
Раздают:  1  
   
загрузка...
 
Автор Сообщение

Galfimbul

avatar Galfimbul


Агенты А.Н.К.Л. / The Man from U.N.C.L.E.«Герои высшего класса»
Год выпуска: 2015
Оригинальное название: The Man from U.N.C.L.E.
Страна: США, Великобритания
Жанр: боевик, комедия, приключения
Возраст: 12+

Режиссер: Гай Ричи

В ролях: Генри Кавилл, Арми Хаммер, Алисия Викандер, Элизабет Дебики, Хью Грант, Лука Кальвани, Сильвестр Грот, Джаред Харрис, Кристиан Беркель, Миша Кузнецов, Марианна Ди Мартино, Джулиан Майкл Деустер, Андреа Каглиши, Риккардо Калваниз, Питер Старк, Дэвид Менкин, Пабло Скола, Чезаре Таурази, Риккардо Фламмини

Описание: Наполеон Соло — агент ЦРУ, на счету которого огромное количество успешно проведенных операций. Он считается одним из лучших секретных агентов во всем мире, и с ним может сравниться только один человек — самый молодой и перспективный агент КГБ, Илья Курякин. Их противостояние переросло в настоящую войну, в которой никто не собирается уступать. Однако обстоятельства складываются так, что непримиримые враги вынуждены стать напарниками. Это происходит после того как спецслужбы двух стран обнаруживают международную преступную организацию, которой удалось создать ядерную бомбу…

Продолжительность: 01:56:30
Перевод: Дублированный [BD EUR]
Оригинальная дорожка: нет

Автор рипа:

Качество видео: BDRip Исходник: Blu-Ray Remux (1080p) Формат: mp4
Видео кодек: MPEG-4 AVC Аудио кодек: AAC
Видео: 1280x534 at 23.976 fps, AVC at 2 165 kbps avg, 0.132 bit/pixel
Аудио №1 Rus: 48.0 KHz, AAC, 2 ch, 128.0 Kbps
Субтитры: нет
Навигация по главам: Есть
GeneralComplete name : E:\Agenty_a.n.k.l.2015_KinoGadget.mp4Format : MPEG-4Format profile : Base MediaCodec ID : isomFile size : 1.87 GiBDuration : 1h 56mnOverall bit rate mode : VariableOverall bit rate : 2 301 KbpsMovie name : Агенты А.Н.К.Л.Performer : Гай РичиGenre : Action, Adventure, ComedyContentType : Short FilmRecorded date : 2015Encoded date : UTC 2016-01-04 10:23:50Tagged date : UTC 2016-01-04 10:40:56Cover : Yes

LongDescription : Наполеон Соло — агент ЦРУ, на счету которого огромное количество успешно проведенных операций. Он считается одним из лучших секретных агентов во всем мире, и с ним может сравниться только один человек — самый молодой и перспективный агент КГБ, Илья Курякин. Их противостояние переросло в настоящую войну, в которой никто не собирается уступать. Однако обстоятельства складываются так, что непримиримые враги вынуждены стать напарниками. Это происходит после того как спецслужбы двух стран обнаруживают международную преступную организацию, которой удалось создать ядерную бомбу…HDVideo : Yes

VideoID : 1Format : AVCFormat/Info : Advanced Video CodecFormat profile : [email protected] settings, CABAC : YesFormat settings, ReFrames : 8 framesCodec ID : avc1Codec ID/Info : Advanced Video CodingDuration : 1h 56mnBit rate : 2 165 KbpsMaximum bit rate : 11.7 MbpsWidth : 1 280 pixelsHeight : 534 pixelsDisplay aspect ratio : 2.40:1Frame rate mode : ConstantFrame rate : 23.976 fpsColor space : YUVChroma subsampling : 4:2:0Bit depth : 8 bitsScan type : ProgressiveBits/(Pixel*Frame) : 0.132Stream size : 1.76 GiB (94%)Writing library : x264 core 148 r2638 7599210Encoding settings : cabac=1 / ref=8 / deblock=1:-1:-1 / analyse=0x3:0x133 / me=umh / subme=9 / psy=1 / psy_rd=1.00:0.15 / mixed_ref=1 / me_range=16 / chroma_me=1 / trellis=2 / 8x8dct=1 / cqm=0 / deadzone=21,11 / fast_pskip=1 / chroma_qp_offset=-3 / threads=3 / lookahead_threads=1 / sliced_threads=0 / nr=0 / decimate=1 / interlaced=0 / bluray_compat=0 / constrained_intra=0 / bframes=3 / b_pyramid=2 / b_adapt=2 / b_bias=0 / direct=3 / weightb=1 / open_gop=0 / weightp=2 / keyint=240 / keyint_min=23 / scenecut=40 / intra_refresh=0 / rc_lookahead=60 / rc=crf / mbtree=1 / crf=21.0 / qcomp=0.60 / qpmin=0 / qpmax=69 / qpstep=4 / vbv_maxrate=62500 / vbv_bufsize=78125 / crf_max=0.0 / nal_hrd=none / filler=0 / ip_ratio=1.40 / aq=1:1.50Encoded date : UTC 2016-01-03 12:43:46Tagged date : UTC 2016-01-04 10:25:10

AudioID : 2Format : AACFormat/Info : Advanced Audio CodecFormat profile : LCCodec ID : 40Duration : 1h 56mnBit rate mode : VariableBit rate : 128 KbpsMaximum bit rate : 135 KbpsChannel count : 2 channelsChannel positions : Front: L RSampling rate : 48.0 KHzCompression mode : LossyDelay relative to video : 83msStream size : 107 MiB (6%)Language : RussianEncoded date : UTC 2016-01-02 20:46:09Tagged date : UTC 2016-01-04 10:25:10

Menu00:00:00.000 : Chapter 100:15:19.083 : Chapter 200:23:11.681 : Chapter 300:32:09.301 : Chapter 400:40:36.056 : Chapter 500:49:07.568 : Chapter 600:59:23.559 : Chapter 701:08:52.837 : Chapter 801:20:28.113 : Chapter 901:29:47.671 : Chapter 1001:43:21.360 : Chapter 1101:49:23.430 : Chapter 12
[url=...39840292] [/url]

Трекер:  [ 04-Янв-2016 13:00 ]

  

Скачать .torrent

Размер .torrent файла 19 KB


Размер: 1.87 GB
Хэш (hash) релиза: 41f9a2e66daf43c78894a7913d229a815f41964e

Еще никто не оставлял запись к записи скачать торрент [VIDEO] Агенты А.Н.К.Л. The Man from U.N.C.L.E. . Будь первым!

!Обратная связь