Season 1 Episode 9 Sacrament of the Ancestors | Discours de réception d'Amélie Nothomb à l'Académie royale de Belgique | Jenn Lyon

Скачать через торрент [VIDEO] Антураж Entourage бесплатно русская версия torrent активатор

Статистика раздачи
Размер:  1.92 GB   |    Зарегистрирован:  2 года 6 месяцев   |    .torrent скачан:  69 раз   |   
Раздают:  1  
   
загрузка...
 
Автор Сообщение

Galfimbul

avatar Galfimbul


Антураж / Entourage«The ride ain't over»
Год выпуска: 2015
Оригинальное название: Entourage
Страна: США
Жанр: комедия
Возраст: 16+

Режиссер: Даг Эллин

В ролях: Кевин Коннолли, Адриан Гренье, Кевин Диллон, Джерри Феррара, Джереми Пивен, Эммануэль Шрики, Хейли Джоэл Осмент, Ронда Раузи, Рекс Ли, Билли Боб Торнтон, Перри Ривз, Деби Мейзар, Рис Койро, Констанс Зиммер, Скотт Мескади, Алан Дэйл, Эмили Ратаковски, Нина Агдал, Лукас Эллин, Пирс Морган

Описание: Звезда кино Винс Чейз и его друзья бросают вызов капризному и зачастую жестокому миру Голливуда.

Продолжительность: 01:44:27
Перевод: Дублированный [Лицензия]
Оригинальная дорожка: нет

Автор рипа:

Качество видео: BDRip Исходник: Blu-Ray Remux (1080p) Формат: mp4
Видео кодек: MPEG-4 AVC Аудио кодек: AAC
Видео: 1280x536 at 23.976 fps, AVC at 2 495 kbps avg, 0.152 bit/pixel
Аудио №1 Rus: 48.0 KHz, AAC, 2 ch, 128.0 Kbps
Субтитры: нет
Навигация по главам: нет
GeneralComplete name : E:\Anturazh.2015_KinoGadget.mp4Format : MPEG-4Format profile : Base MediaCodec ID : isomFile size : 1.92 GiBDuration : 1h 44mnOverall bit rate mode : VariableOverall bit rate : 2 631 KbpsMovie name : АнтуражPerformer : Даг ЭллинGenre : ComedyContentType : Short FilmRecorded date : 2015Encoded date : UTC 2016-01-04 09:59:51Tagged date : UTC 2016-01-04 10:07:01Writing application : MkvToMp4 [www.mkvtomp4.ru] version: 0.224 (x32)Cover : YesLongDescription : Звезда кино Винс Чейз и его друзья бросают вызов капризному и зачастую жестокому миру Голливуда.HDVideo : YesContentRating : mpaa|R|400|

VideoID : 1Format : AVCFormat/Info : Advanced Video CodecFormat profile : [email protected] settings, CABAC : YesFormat settings, ReFrames : 11 framesCodec ID : avc1Codec ID/Info : Advanced Video CodingDuration : 1h 44mnBit rate : 2 495 KbpsMaximum bit rate : 13.1 MbpsWidth : 1 280 pixelsHeight : 536 pixelsDisplay aspect ratio : 2.40:1Frame rate mode : ConstantFrame rate : 23.976 fpsColor space : YUVChroma subsampling : 4:2:0Bit depth : 8 bitsScan type : ProgressiveBits/(Pixel*Frame) : 0.152Stream size : 1.82 GiB (95%)Writing library : x264 core 146 r2538 121396cEncoding settings : cabac=1 / ref=11 / deblock=1:-1:-1 / analyse=0x3:0x133 / me=umh / subme=7 / psy=1 / psy_rd=1.00:0.15 / mixed_ref=1 / me_range=24 / chroma_me=1 / trellis=2 / 8x8dct=1 / cqm=0 / deadzone=21,11 / fast_pskip=1 / chroma_qp_offset=-3 / threads=3 / lookahead_threads=1 / sliced_threads=0 / nr=0 / decimate=1 / interlaced=0 / bluray_compat=0 / constrained_intra=0 / bframes=6 / b_pyramid=2 / b_adapt=2 / b_bias=0 / direct=3 / weightb=1 / open_gop=0 / weightp=2 / keyint=240 / keyint_min=23 / scenecut=40 / intra_refresh=0 / rc_lookahead=60 / rc=crf / mbtree=1 / crf=21.0 / qcomp=0.60 / qpmin=0 / qpmax=69 / qpstep=4 / ip_ratio=1.40 / aq=1:1.00Language : EnglishEncoded date : UTC 2016-01-04 09:59:51Tagged date : UTC 2016-01-04 10:02:49

AudioID : 2Format : AACFormat/Info : Advanced Audio CodecFormat profile : LCCodec ID : 40Duration : 1h 44mnBit rate mode : VariableBit rate : 128 KbpsMaximum bit rate : 135 KbpsChannel count : 2 channelsChannel positions : Front: L RSampling rate : 48.0 KHzCompression mode : LossyStream size : 95.6 MiB (5%)Language : RussianEncoded date : UTC 2016-01-04 10:02:23Tagged date : UTC 2016-01-04 10:02:49
[url=...39840292] [/url]

Трекер:  [ 04-Янв-2016 12:30 ]

  

Скачать .torrent

Размер .torrent файла 19 KB


Размер: 1.92 GB
Хэш (hash) релиза: 2a8793062929810c5b7f127fc0e7cc4c9d320c49

Торренты, похожие на [VIDEO] Антураж Entourage скачать торрент

Форум Название Автор Размер S L Добавлен
Видео (Фильмы/Клипы) ·· [VIDEO] Антураж / Entourage (Даг Эллин / Doug Ellin) [2015, США, комедия, HDRip][MP4, 480x] Dub Galfimbul 503123006480 MB 0 0 1443416327

07:58

28-Сен-15

Еще никто не оставлял запись к записи скачать торрент [VIDEO] Антураж Entourage . Будь первым!

!Обратная связь