Ritter Rost | Kimmy Meets an Old Friend! | BD 11 Eyes + OVA Subtitle Indonesia

Скачать через торрент [VIDEO] Z – значит Захария Z for Zachariah бесплатно русская версия torrent активатор

Статистика раздачи
Размер:  1.61 GB   |    Зарегистрирован:  2 года 6 месяцев   |    .torrent скачан:  942 раза   |   
Раздают:  1  
   
загрузка...
 
Автор Сообщение

Galfimbul

avatar Galfimbul


Z – значит Захария / Z for Zachariah«After the end of the world she thought she was alone. She was wrong»
Год выпуска: 2015
Оригинальное название: Z for Zachariah
Страна: Исландия, Швейцария, Новая Зеландия, США
Жанр: фантастика, драма, триллер
Возраст: 12+

Режиссер: Крэйг Зобел

В ролях: Чиветел Эджиофор, Марго Робби, Крис Пайн

Описание: В разрушенном ядерной войной мире чудом смогла выжить 16-летняя Энн. Она встречает взрослого ученого по имени Люмис, который уже потерял надежду найти свою семью. Энн взрослеет, между ней и Люмисом рождаются чувства. Ситуация усложняется, когда появляется третий выживший — молодой парень Калеб. Начинается война за последнюю женщину на земле…

Продолжительность: 01:37:55
Перевод: Любительский одноголосый [RAIM]
Оригинальная дорожка: нет

Автор рипа:

Качество видео: BDRip Исходник: Blu-Ray Remux (1080p) Формат: mp4
Видео кодек: MPEG-4 AVC Аудио кодек: AAC
Видео: 1280x536 at 23.976 fps, AVC at 2 222 kbps avg, 0.135 bit/pixel
Аудио №1 Rus: 48.0 KHz, AAC, 2 ch, 128.0 Kbps
Субтитры: нет
Навигация по главам: нет
GeneralComplete name : E:\Z_znachit_Zaxariya.2015_KinoGadget.mp4Format : MPEG-4Format profile : Base MediaCodec ID : isomFile size : 1.61 GiBDuration : 1h 37mnOverall bit rate mode : VariableOverall bit rate : 2 358 KbpsMovie name : Z – значит ЗахарияPerformer : Крэйг ЗобелGenre : Drama, ThrillerContentType : Short FilmRecorded date : 2015Encoded date : UTC 2016-01-02 11:18:38Tagged date : UTC 2016-01-04 09:20:42Cover : YesContentRating : mpaa|PG-13|300|

LongDescription : В разрушенном ядерной войной мире чудом смогла выжить 16-летняя Энн. Она встречает взрослого ученого по имени Люмис, который уже потерял надежду найти свою семью. Энн взрослеет, между ней и Люмисом рождаются чувства. Ситуация усложняется, когда появляется третий выживший — молодой парень Калеб. Начинается война за последнюю женщину на земле…HDVideo : Yes

VideoID : 1Format : AVCFormat/Info : Advanced Video CodecFormat profile : [email protected] settings, CABAC : YesFormat settings, ReFrames : 11 framesCodec ID : avc1Codec ID/Info : Advanced Video CodingDuration : 1h 37mnBit rate : 2 222 KbpsMaximum bit rate : 14.4 MbpsWidth : 1 280 pixelsHeight : 536 pixelsDisplay aspect ratio : 2.40:1Frame rate mode : ConstantFrame rate : 23.976 fpsColor space : YUVChroma subsampling : 4:2:0Bit depth : 8 bitsScan type : ProgressiveBits/(Pixel*Frame) : 0.135Stream size : 1.52 GiB (94%)Writing library : x264 core 146 r2538 121396cEncoding settings : cabac=1 / ref=11 / deblock=1:-1:-1 / analyse=0x3:0x133 / me=umh / subme=9 / psy=1 / psy_rd=1.00:0.00 / mixed_ref=1 / me_range=32 / chroma_me=1 / trellis=2 / 8x8dct=1 / cqm=0 / deadzone=21,11 / fast_pskip=1 / chroma_qp_offset=-2 / threads=3 / lookahead_threads=1 / sliced_threads=0 / nr=0 / decimate=1 / interlaced=0 / bluray_compat=0 / constrained_intra=0 / bframes=8 / b_pyramid=2 / b_adapt=2 / b_bias=0 / direct=3 / weightb=1 / open_gop=0 / weightp=2 / keyint=240 / keyint_min=23 / scenecut=40 / intra_refresh=0 / rc_lookahead=60 / rc=crf / mbtree=1 / crf=18.0 / qcomp=0.60 / qpmin=0 / qpmax=69 / qpstep=4 / ip_ratio=1.40 / aq=1:1.00Language : EnglishEncoded date : UTC 2016-01-02 11:13:30Tagged date : UTC 2016-01-02 11:20:04

AudioID : 2Format : AACFormat/Info : Advanced Audio CodecFormat profile : LCCodec ID : 40Duration : 1h 37mnBit rate mode : VariableBit rate : 128 KbpsMaximum bit rate : 135 KbpsChannel count : 2 channelsChannel positions : Front: L RSampling rate : 48.0 KHzCompression mode : LossyStream size : 89.6 MiB (5%)Language : RussianEncoded date : UTC 2016-01-02 11:03:35Tagged date : UTC 2016-01-02 11:20:04
[url=...39840292] [/url]

Трекер:  [ 04-Янв-2016 11:30 ]

  

Скачать .torrent

Размер .torrent файла 16 KB


Размер: 1.61 GB
Хэш (hash) релиза: 451fdd99e7233a0c4dc1ec74214d95381feee785

Торренты, похожие на [VIDEO] Z – значит Захария Z for Zachariah скачать торрент

Форум Название Автор Размер S L Добавлен
Видео (Фильмы/Клипы) ·· [VIDEO] Z – значит Захария / Z for Zachariah (Крэйг Зобел / Craig Zobel) [2015, Исландия, США, фантастика, драма, триллер, HDRip][MP4, 480x] VO Galfimbul 472336419450 MB 0 0 1441920721

00:32

11-Сен-15

Еще никто не оставлял запись к записи скачать торрент [VIDEO] Z – значит Захария Z for Zachariah . Будь первым!

!Обратная связь