Scene Release Rules | BDRipVF Diversion | Harry Potter: Hogwarts Mystery

Скачать через торрент [VIDEO] Хлоя и Тео Chloe & Theo бесплатно русская версия torrent активатор

 
Автор Сообщение

Galfimbul

avatar Galfimbul


Хлоя и Тео / Chloe & Theo«From the northern ice comes a gentler kind of hero»
Год выпуска: 2015
Оригинальное название: Chloe & Theo
Страна: Канада, США
Жанр: драма, комедия
Возраст: 12+

Режиссер: Эзна Сэндс

В ролях: Дакота Джонсон, Мира Сорвино, Лори Тан Чинн, Адриан Мартинес, Кристофер Бакус, Элизабет Масуччи, Ларри Кинг, Эшли Спрингер, Николь Зиоли, Джесика Андерсон, Брэндон Бойд, Андре Де Шилдс, Паркер Сноу, Мишель Кэмпбелл, Кевин Уитт, Куинси Чад Френсис, Хассан Мэннинг, Дион Сапп, Ларри Баллард, Эрик Орам, Майкл Морана, Рути Каминскас, Юджин Ипкарнак, Мелисса Джексон, Эрве Паниак, Джонатан Мэйсон, Энтони Куорлз, Джон Новак, Наталино Пиугаттук, Д.В. Вон Браун

Описание: Эскимос Тео, из Арктики, едет в Нью-Йорк, чтобы предупредить мировых лидеров о катастрофическом влиянии глобального потепления на планете. По прибытии он встречает бездомную девушку по имени Хлоя, которая решила ему в этом помочь. Вместе они изменят мир.

Продолжительность: 01:21:42
Перевод: Профессиональный многоголосый
Оригинальная дорожка: нет

Автор рипа:

Качество видео: BDRip Исходник: Blu-Ray Remux (1080p) Формат: mp4
Видео кодек: MPEG-4 AVC Аудио кодек: AAC
Видео: 1280x544 at 23.976 fps, AVC at 1 757 kbps avg, 0.105 bit/pixel
Аудио №1 Rus: 48.0 KHz, AAC, 2 ch, 128.0 Kbps
Субтитры: нет
Навигация по главам: нет
GeneralComplete name : E:\Xloya_i_Teo.2015_KinoGadget.mp4Format : MPEG-4Format profile : Base MediaCodec ID : isomFile size : 1.08 GiBDuration : 1h 21mnOverall bit rate mode : VariableOverall bit rate : 1 893 KbpsMovie name : Хлоя и ТеоPerformer : Эзна СэндсGenre : Comedy, DramaContentType : Short FilmRecorded date : 2015Encoded date : UTC 2016-01-01 19:17:22Tagged date : UTC 2016-01-01 19:48:41Cover : YesContentRating : mpaa|PG-13|300|

LongDescription : Эскимос Тео, из Арктики, едет в Нью-Йорк, чтобы предупредить мировых лидеров о катастрофическом влиянии глобального потепления на планете. По прибытии он встречает бездомную девушку по имени Хлоя, которая решила ему в этом помочь. Вместе они изменят мир.HDVideo : Yes

VideoID : 1Format : AVCFormat/Info : Advanced Video CodecFormat profile : [email protected] settings, CABAC : YesFormat settings, ReFrames : 11 framesCodec ID : avc1Codec ID/Info : Advanced Video CodingDuration : 1h 21mnBit rate : 1 757 KbpsMaximum bit rate : 11.3 MbpsWidth : 1 280 pixelsHeight : 544 pixelsDisplay aspect ratio : 2.35:1Frame rate mode : ConstantFrame rate : 23.976 fpsColor space : YUVChroma subsampling : 4:2:0Bit depth : 8 bitsScan type : ProgressiveBits/(Pixel*Frame) : 0.105Stream size : 1.00 GiB (93%)Writing library : x264 core 146 r2538 121396cEncoding settings : cabac=1 / ref=11 / deblock=1:-1:-1 / analyse=0x3:0x133 / me=umh / subme=9 / psy=1 / psy_rd=1.00:0.20 / mixed_ref=1 / me_range=32 / chroma_me=1 / trellis=2 / 8x8dct=1 / cqm=0 / deadzone=21,11 / fast_pskip=1 / chroma_qp_offset=-3 / threads=3 / lookahead_threads=1 / sliced_threads=0 / nr=0 / decimate=1 / interlaced=0 / bluray_compat=0 / constrained_intra=0 / bframes=8 / b_pyramid=2 / b_adapt=2 / b_bias=0 / direct=3 / weightb=1 / open_gop=0 / weightp=2 / keyint=240 / keyint_min=23 / scenecut=40 / intra_refresh=0 / rc_lookahead=60 / rc=crf / mbtree=1 / crf=18.0 / qcomp=0.60 / qpmin=0 / qpmax=69 / qpstep=4 / ip_ratio=1.40 / aq=1:1.00Language : EnglishEncoded date : UTC 2016-01-01 19:04:42Tagged date : UTC 2016-01-01 19:18:20

AudioID : 2Format : AACFormat/Info : Advanced Audio CodecFormat profile : LCCodec ID : 40Duration : 1h 21mnBit rate mode : VariableBit rate : 128 KbpsMaximum bit rate : 134 KbpsChannel count : 2 channelsChannel positions : Front: L RSampling rate : 48.0 KHzCompression mode : LossyStream size : 74.8 MiB (7%)Language : RussianEncoded date : UTC 2016-01-01 19:07:03Tagged date : UTC 2016-01-01 19:18:20
[url=...39840292] [/url]

Еще никто не оставлял запись к записи скачать торрент [VIDEO] Хлоя и Тео Chloe & Theo . Будь первым!

!Обратная связь