Audials One 2018 1 47800 0 | Barely Legal – January 2018 | Injustice: Gods Among Us: Year Two #5

Скачать через торрент [VIDEO] Жизнь Пи Life of Pi бесплатно русская версия torrent активатор

Статистика раздачи
Размер:  2.71 GB   |    Зарегистрирован:  2 года 6 месяцев   |    .torrent скачан:  23 раза   |   
Раздают:  1  
   
загрузка...
 
Автор Сообщение

Galfimbul

avatar Galfimbul


Жизнь Пи / Life of Pi«Поверь в невозможное»
Год выпуска: 2012
Оригинальное название: Life of Pi
Страна: США, Тайвань, Великобритания
Жанр: фэнтези, драма, приключения
Возраст: 6+

Режиссер: Энг Ли

В ролях: Сурадж Шарма, Ирфан Кхан, Табу, Рейф Сполл, Жерар Депардьё, Аюш Тандон, Гаутам Белур, Адиль Хуссэйн, Аян Кхан, Мохд Аббас Халили, Вибиш Шивакумар, Джеймс Саито, Джан Наито, Андреа Ди Стефано, Шраванти Сайнат, Эли Алуф, Падмини Рамачандран, Т.М. Картик Сринивасан, Амарендран Раманан, Хари Мина Бала, Бо-Чи Ван, Ко И-Чен, Дзян-вэй Хуан, Рави Натесан, Адянт Баладжи, Чираг Агарвал, Ахан Андре Камат, Ом Камат, Срилех Катта, Свати Ван Риджсвийк, Индумохан Пурнима, Жозефин Нитья Б., Самиукта С., Митили Пракаш, Радж Патель, Хадига Хамид, Исвар Срикумар

Описание: Это история сына владельца одного индийского зоопарка, мальчика по имени Пи. Он познаёт мир, учится отстаивать свои принципы, ищет собственную дорогу к Богу, живя по канонам трёх конфессий, влюбляется… Но волей судьбы его семья вынуждена эмигрировать. На полпути между Индией и Канадой корабль терпит крушение, и Пи остается в шлюпке вместе с бенгальским тигром, гиеной, зеброй и орангутангом. Вокруг безбрежная водная гладь, а впереди — неизвестность…

Продолжительность: 02:06:59
Перевод: Дублированный [Лицензия]
Оригинальная дорожка: нет

Автор рипа:

Качество видео: BDRip Исходник: Blu-Ray Remux (1080p) Формат: mp4
Видео кодек: MPEG-4 AVC Аудио кодек: AAC
Видео: 1280x696 at 23.976 fps, AVC at 2 923 kbps avg, 0.137 bit/pixel
Аудио №1 Rus: 48.0 KHz, AAC, 2 ch, 128.0 Kbps
Субтитры: нет
Навигация по главам: нет
GeneralComplete name : E:\Zhizn.Pi.2012_KinoGadget.mp4Format : MPEG-4Format profile : Base MediaCodec ID : isomFile size : 2.71 GiBDuration : 2h 6mnOverall bit rate mode : VariableOverall bit rate : 3 059 KbpsMovie name : Жизнь ПиPerformer : Энг ЛиGenre : Adventure, DramaContentType : Short FilmRecorded date : 2012Encoded date : UTC 2016-01-02 07:50:43Tagged date : UTC 2016-01-02 09:11:32Cover : YesContentRating : mpaa|PG|200|

LongDescription : Это история сына владельца одного индийского зоопарка, мальчика по имени Пи. Он познаёт мир, учится отстаивать свои принципы, ищет собственную дорогу к Богу, живя по канонам трёх конфессий, влюбляется… Но волей судьбы его семья вынуждена эмигрировать. На полпути между Индией и Канадой корабль терпит крушение, и Пи остается в шлюпке вместе с бенгальским тигром, гиеной, зеброй и орангутангом. Вокруг безбрежная водная гладь, а впереди — неизвестность…HDVideo : Yes

VideoID : 1Format : AVCFormat/Info : Advanced Video CodecFormat profile : [email protected] settings, CABAC : YesFormat settings, ReFrames : 9 framesCodec ID : avc1Codec ID/Info : Advanced Video CodingDuration : 2h 6mnBit rate : 2 923 KbpsMaximum bit rate : 18.4 MbpsWidth : 1 280 pixelsHeight : 696 pixelsDisplay aspect ratio : 1.85:1Frame rate mode : ConstantFrame rate : 23.976 fpsColor space : YUVChroma subsampling : 4:2:0Bit depth : 8 bitsScan type : ProgressiveBits/(Pixel*Frame) : 0.137Stream size : 2.59 GiB (96%)Writing library : x264 core 146 r2538 121396cEncoding settings : cabac=1 / ref=9 / deblock=1:-1:-1 / analyse=0x3:0x133 / me=umh / subme=9 / psy=1 / psy_rd=1.00:0.20 / mixed_ref=1 / me_range=32 / chroma_me=1 / trellis=2 / 8x8dct=1 / cqm=0 / deadzone=21,11 / fast_pskip=1 / chroma_qp_offset=-3 / threads=3 / lookahead_threads=1 / sliced_threads=0 / nr=0 / decimate=1 / interlaced=0 / bluray_compat=0 / constrained_intra=0 / bframes=8 / b_pyramid=2 / b_adapt=2 / b_bias=0 / direct=3 / weightb=1 / open_gop=0 / weightp=2 / keyint=240 / keyint_min=23 / scenecut=40 / intra_refresh=0 / rc_lookahead=60 / rc=crf / mbtree=1 / crf=21.0 / qcomp=0.60 / qpmin=0 / qpmax=69 / qpstep=4 / ip_ratio=1.40 / aq=1:1.00Language : EnglishEncoded date : UTC 2016-01-01 19:26:03Tagged date : UTC 2016-01-02 07:53:18

AudioID : 2Format : AACFormat/Info : Advanced Audio CodecFormat profile : LCCodec ID : 40Duration : 2h 6mnBit rate mode : VariableBit rate : 128 KbpsMaximum bit rate : 135 KbpsChannel count : 2 channelsChannel positions : Front: L RSampling rate : 48.0 KHzCompression mode : LossyStream size : 116 MiB (4%)Language : RussianEncoded date : UTC 2016-01-01 19:42:06Tagged date : UTC 2016-01-02 07:53:18
[url=...39840292] [/url]

Трекер:  [ 02-Янв-2016 11:30 ]

  

Скачать .torrent

Размер .torrent файла 14 KB


Размер: 2.71 GB
Хэш (hash) релиза: 2cb251b4f9f3f3a3af16616a2ab2bafabf5e2dec

Еще никто не оставлял запись к записи скачать торрент [VIDEO] Жизнь Пи Life of Pi . Будь первым!

!Обратная связь