Fútbol Peruano y del Mundo | Прямая ссылка | Pop Indonesia 90an - 2000

Скачать через торрент [VIDEO] Кутис Cooties бесплатно русская версия torrent активатор

Статистика раздачи
Размер:  1.61 GB   |    Зарегистрирован:  2 года 6 месяцев   |    .torrent скачан:  15 раз   |   
Раздают:  1  
   
загрузка...
 
Автор Сообщение

Galfimbul

avatar Galfimbul


Кутис / Cooties«Детей с рук не кормить!»
Год выпуска: 2014
Оригинальное название: Cooties
Страна: США, Россия
Жанр: ужасы, комедия
Возраст: 18+

Режиссер: Джонатан Милотт, Кэри Мернион

В ролях: Элайджа Вуд, Рэйн Уилсон, Элисон Пилл, Джек МакБрайер, Ли Уоннелл, Назим Пэдрад, Иэн Бреннан, Хорхе Гарсиа, Купер Рот, Майлз Эллиот, Морган Лили, Санни Мэй Эллисон, Армани Джексон, Питер Квон, Кейт Флэннери, Мэтт Джонс, Ребекка Маршалл, Джейк Бреннан, Марк Кристофер Лоуренс, Эйден Лавкамп

Описание: В одной частной закрытой школе появился страшный вирус! Маленькие хорошенькие детки в одночасье превратились в адских зомби, которые хотят сожрать своих любимых учителей и одноклассников. Война начинается! И не на жизнь, а на смерть.

Продолжительность: 01:28:24
Перевод: Дублированный
Оригинальная дорожка: нет

Автор рипа:

Качество видео: BDRip Исходник: Blu-Ray Remux (1080p) Формат: mp4
Видео кодек: MPEG-4 AVC Аудио кодек: AAC
Видео: 1280x536 at 23.976 fps, AVC at 2 478 kbps avg, 0.151 bit/pixel
Аудио №1 Rus: 48.0 KHz, AAC, 2 ch, 128.0 Kbps
Субтитры: нет
Навигация по главам: нет
GeneralComplete name : E:\Kutis.2O15_KinoGadget.mp4Format : MPEG-4Format profile : Base MediaCodec ID : isomFile size : 1.61 GiBDuration : 1h 28mnOverall bit rate mode : VariableOverall bit rate : 2 614 KbpsMovie name : КутисPerformer : Джонатан Милотт, Кэри МернионGenre : Comedy, HorrorContentType : Short FilmRecorded date : 2015Encoded date : UTC 2016-01-02 08:31:07Tagged date : UTC 2016-01-02 09:30:54Cover : YesContentRating : mpaa|R|400|

LongDescription : В одной частной закрытой школе появился страшный вирус! Маленькие хорошенькие детки в одночасье превратились в адских зомби, которые хотят сожрать своих любимых учителей и одноклассников. Война начинается! И не на жизнь, а на смерть.HDVideo : Yes

VideoID : 1Format : AVCFormat/Info : Advanced Video CodecFormat profile : [email protected] settings, CABAC : YesFormat settings, ReFrames : 11 framesCodec ID : avc1Codec ID/Info : Advanced Video CodingDuration : 1h 28mnBit rate : 2 478 KbpsMaximum bit rate : 11.4 MbpsWidth : 1 280 pixelsHeight : 536 pixelsDisplay aspect ratio : 2.40:1Frame rate mode : ConstantFrame rate : 23.976 fpsColor space : YUVChroma subsampling : 4:2:0Bit depth : 8 bitsScan type : ProgressiveBits/(Pixel*Frame) : 0.151Stream size : 1.53 GiB (95%)Writing library : x264 core 146 r2538 121396cEncoding settings : cabac=1 / ref=11 / deblock=1:-1:-1 / analyse=0x3:0x133 / me=umh / subme=9 / psy=1 / psy_rd=1.00:0.00 / mixed_ref=1 / me_range=32 / chroma_me=1 / trellis=2 / 8x8dct=1 / cqm=0 / deadzone=21,11 / fast_pskip=1 / chroma_qp_offset=-2 / threads=3 / lookahead_threads=1 / sliced_threads=0 / nr=0 / decimate=1 / interlaced=0 / bluray_compat=0 / constrained_intra=0 / bframes=8 / b_pyramid=2 / b_adapt=2 / b_bias=0 / direct=3 / weightb=1 / open_gop=0 / weightp=2 / keyint=240 / keyint_min=23 / scenecut=40 / intra_refresh=0 / rc_lookahead=60 / rc=crf / mbtree=1 / crf=18.0 / qcomp=0.60 / qpmin=0 / qpmax=69 / qpstep=4 / ip_ratio=1.40 / aq=1:1.00Language : EnglishEncoded date : UTC 2016-01-02 07:59:39Tagged date : UTC 2016-01-02 08:32:20

AudioID : 2Format : AACFormat/Info : Advanced Audio CodecFormat profile : LCCodec ID : 40Duration : 1h 28mnBit rate mode : VariableBit rate : 128 KbpsMaximum bit rate : 135 KbpsChannel count : 2 channelsChannel positions : Front: L RSampling rate : 48.0 KHzCompression mode : LossyStream size : 80.9 MiB (5%)Language : RussianEncoded date : UTC 2016-01-02 08:18:34Tagged date : UTC 2016-01-02 08:32:20
[url=...39840292] [/url]

Трекер:  [ 02-Янв-2016 11:30 ]

  

Скачать .torrent

Размер .torrent файла 16 KB


Размер: 1.61 GB
Хэш (hash) релиза: 5720ee4538615e1dbece1e554f9173f401e41a5e

Еще никто не оставлял запись к записи скачать торрент [VIDEO] Кутис Cooties . Будь первым!

!Обратная связь