Odyssee ins Traumland | Microsoft Windows | Older posts

Скачать через торрент [VIDEO] Опасное погружение Pressure бесплатно русская версия torrent активатор

Статистика раздачи
Размер:  1.77 GB   |    Зарегистрирован:  2 года 6 месяцев   |    .torrent скачан:  14 раз   |   
Раздают:  1  
   
загрузка...
 
Автор Сообщение

Galfimbul

avatar Galfimbul


Опасное погружение / Pressure«Задержи своё дыхание»
Год выпуска: 2015
Оригинальное название: Pressure
Страна: Великобритания
Жанр: триллер, драма
Возраст: 16+

Режиссер: Рон Скальпелло

В ролях: Дэнни Хьюстон, Мэттью Гуд, Джо Коул, Алан МакКенна, Йен Пири, Дэйзи Лоу, Гемита Самарра, Ричард Битта

Описание: Маленькая капсула с четырьмя водолазами застряла на дне восточноафриканских вод на глубине 200 метров. Кислорода с каждым вдохом становится все меньше, а надежда на чудесное спасение тает с каждой минутой. Брошенным на произвол судьбы, им ничего не остается, кроме как попытаться спастись своими силами, полагаясь лишь на собственную храбрость и отчаянное желание выжить.

Продолжительность: 01:31:14
Перевод: Дублированный [iTunes]
Оригинальная дорожка: нет

Автор рипа:

Качество видео: BDRip Исходник: Blu-Ray Remux (1080p) Формат: mp4
Видео кодек: MPEG-4 AVC Аудио кодек: AAC
Видео: 1280x688 at 24.000 fps, AVC at 2 649 kbps avg, 0.125 bit/pixel
Аудио №1 Rus: 48.0 KHz, AAC, 2 ch, 128.0 Kbps
Субтитры: нет
Навигация по главам: нет
GeneralComplete name : E:\Opasnoe_pogruzhenie.2015_KinoGadget.mp4Format : MPEG-4Format profile : Base MediaCodec ID : isomFile size : 1.77 GiBDuration : 1h 31mnOverall bit rate mode : VariableOverall bit rate : 2 785 KbpsMovie name : Опасное погружениеPerformer : Рон СкальпеллоGenre : ThrillerContentType : Short FilmRecorded date : 2015Encoded date : UTC 2016-01-02 10:06:24Tagged date : UTC 2016-01-02 10:11:17Cover : YesContentRating : mpaa|R|400|

LongDescription : Маленькая капсула с четырьмя водолазами застряла на дне восточноафриканских вод на глубине 200 метров. Кислорода с каждым вдохом становится все меньше, а надежда на чудесное спасение тает с каждой минутой. Брошенным на произвол судьбы, им ничего не остается, кроме как попытаться спастись своими силами, полагаясь лишь на собственную храбрость и отчаянное желание выжить.HDVideo : Yes

VideoID : 1Format : AVCFormat/Info : Advanced Video CodecFormat profile : [email protected] settings, CABAC : YesFormat settings, ReFrames : 9 framesCodec ID : avc1Codec ID/Info : Advanced Video CodingDuration : 1h 31mnBit rate : 2 649 KbpsMaximum bit rate : 14.2 MbpsWidth : 1 280 pixelsHeight : 688 pixelsDisplay aspect ratio : 1.85:1Frame rate mode : ConstantFrame rate : 24.000 fpsColor space : YUVChroma subsampling : 4:2:0Bit depth : 8 bitsScan type : ProgressiveBits/(Pixel*Frame) : 0.125Stream size : 1.69 GiB (95%)Writing library : x264 core 146 r2538 121396cEncoding settings : cabac=1 / ref=9 / deblock=1:-1:-1 / analyse=0x3:0x133 / me=umh / subme=9 / psy=1 / psy_rd=1.00:0.00 / mixed_ref=1 / me_range=32 / chroma_me=1 / trellis=2 / 8x8dct=1 / cqm=0 / deadzone=21,11 / fast_pskip=1 / chroma_qp_offset=-2 / threads=3 / lookahead_threads=1 / sliced_threads=0 / nr=0 / decimate=1 / interlaced=0 / bluray_compat=0 / constrained_intra=0 / bframes=8 / b_pyramid=2 / b_adapt=2 / b_bias=0 / direct=3 / weightb=1 / open_gop=0 / weightp=2 / keyint=240 / keyint_min=24 / scenecut=40 / intra_refresh=0 / rc_lookahead=60 / rc=crf / mbtree=1 / crf=18.0 / qcomp=0.60 / qpmin=0 / qpmax=69 / qpstep=4 / ip_ratio=1.40 / aq=1:1.00Language : EnglishEncoded date : UTC 2016-01-02 09:51:05Tagged date : UTC 2016-01-02 10:07:50

AudioID : 2Format : AACFormat/Info : Advanced Audio CodecFormat profile : LCCodec ID : 40Duration : 1h 31mnBit rate mode : VariableBit rate : 128 KbpsMaximum bit rate : 135 KbpsChannel count : 2 channelsChannel positions : Front: L RSampling rate : 48.0 KHzCompression mode : LossyStream size : 83.5 MiB (5%)Language : RussianEncoded date : UTC 2016-01-02 09:54:46Tagged date : UTC 2016-01-02 10:07:50
[url=...39840292] [/url]

Трекер:  [ 02-Янв-2016 11:30 ]

  

Скачать .torrent

Размер .torrent файла 18 KB


Размер: 1.77 GB
Хэш (hash) релиза: 6fd288c522f9051dd14463d92f5bba418ec3a64b

Торренты, похожие на [VIDEO] Опасное погружение Pressure скачать торрент

Форум Название Автор Размер S L Добавлен
Видео (Фильмы/Клипы) ·· [VIDEO] Опасное погружение / Pressure (Рон Скальпелло / Ron Scalpello) [2015, Великобритания, триллер, WEB-DLRip][MP4, 480x] Dub Galfimbul 439521742419 MB 0 0 1434464383

17:19

16-Июн-15

Еще никто не оставлял запись к записи скачать торрент [VIDEO] Опасное погружение Pressure . Будь первым!

!Обратная связь