Скачать | Underground | QuarkXPress v9.5.1.

Скачать через торрент [VIDEO] Человек-муравей Ant-Man бесплатно русская версия torrent активатор

Статистика раздачи
Размер:  2.14 GB   |    Зарегистрирован:  2 года 6 месяцев   |    .torrent скачан:  77 раз   |   
Раздают:  1  
   
загрузка...
 
Автор Сообщение

Galfimbul

avatar Galfimbul


Человек-муравей / Ant-Man«Рожденный ползать взлетит до небес»
Год выпуска: 2015
Оригинальное название: Ant-Man
Страна: США
Жанр: фантастика, боевик, комедия, приключения
Возраст: 12+

Режиссер: Пейтон Рид

В ролях: Пол Радд, Майкл Дуглас, Эванджелин Лилли, Кори Столл, Майкл Пенья, Бобби Каннавейл, Ти-Ай, Давид Дастмалчян, Эбби Райдер Фортсон, Джуди Грир, Энтони Маки, Вуд Харрис, Мартин Донован, Хейли Этвелл, Джон Слэттери, Гаррет Моррис, Нил Гамбургер, Род Халлетт, Джо Крест, Джо Букаро III

Описание: Вооружившись удивительной способностью уменьшаться в размере, но обладать при этом большой силой, мошенник Скотт Лэнг должен стать героем и помочь своему наставнику, доктору Хэнку Пиму, сохранить в тайне существование костюма Человека-муравья от угроз нового поколения.

Продолжительность: 01:57:06
Перевод: Дублированный [Лицензия]
Оригинальная дорожка: нет

Автор рипа:

Качество видео: BDRip Исходник: Blu-Ray (1080p) Формат: mp4
Видео кодек: MPEG-4 AVC Аудио кодек: AAC
Видео: 1280x688 at 23.976 fps, AVC at 2 482 kbps avg, 0.118 bit/pixel
Аудио №1 Rus: 48.0 KHz, AAC, 2 ch, 128.0 Kbps
Субтитры: нет
Навигация по главам: нет
GeneralComplete name : E:\Chelovek-muravej.2015_KinoGadget.mp4Format : MPEG-4Format profile : Base MediaCodec ID : isomFile size : 2.14 GiBDuration : 1h 57mnOverall bit rate mode : VariableOverall bit rate : 2 619 KbpsMovie name : Человек-муравейPerformer : Пейтон РидGenre : Action, AdventureContentType : Short FilmRecorded date : 2015Encoded date : UTC 2016-01-02 07:36:52Tagged date : UTC 2016-01-02 10:30:29Cover : YesContentRating : mpaa|PG-13|300|

LongDescription : Вооружившись удивительной способностью уменьшаться в размере, но обладать при этом большой силой, мошенник Скотт Лэнг должен стать героем и помочь своему наставнику, доктору Хэнку Пиму, сохранить в тайне существование костюма Человека-муравья от угроз нового поколения.HDVideo : Yes

VideoID : 1Format : AVCFormat/Info : Advanced Video CodecFormat profile : [email protected] settings, CABAC : YesFormat settings, ReFrames : 8 framesCodec ID : avc1Codec ID/Info : Advanced Video CodingDuration : 1h 57mnBit rate : 2 482 KbpsMaximum bit rate : 23.1 MbpsWidth : 1 280 pixelsHeight : 688 pixelsDisplay aspect ratio : 1.85:1Frame rate mode : ConstantFrame rate : 23.976 fpsColor space : YUVChroma subsampling : 4:2:0Bit depth : 8 bitsScan type : ProgressiveBits/(Pixel*Frame) : 0.118Stream size : 2.03 GiB (95%)Writing library : x264 core 148 r2638 7599210Encoding settings : cabac=1 / ref=8 / deblock=1:-1:-1 / analyse=0x3:0x133 / me=umh / subme=9 / psy=1 / psy_rd=1.00:0.15 / mixed_ref=1 / me_range=16 / chroma_me=1 / trellis=2 / 8x8dct=1 / cqm=0 / deadzone=21,11 / fast_pskip=1 / chroma_qp_offset=-3 / threads=3 / lookahead_threads=1 / sliced_threads=0 / nr=0 / decimate=1 / interlaced=0 / bluray_compat=0 / constrained_intra=0 / bframes=3 / b_pyramid=2 / b_adapt=2 / b_bias=0 / direct=3 / weightb=1 / open_gop=0 / weightp=2 / keyint=240 / keyint_min=23 / scenecut=40 / intra_refresh=0 / rc_lookahead=60 / rc=crf / mbtree=1 / crf=21.0 / qcomp=0.60 / qpmin=0 / qpmax=69 / qpstep=4 / vbv_maxrate=62500 / vbv_bufsize=78125 / crf_max=0.0 / nal_hrd=none / filler=0 / ip_ratio=1.40 / aq=1:1.50Encoded date : UTC 2016-01-02 07:36:52Tagged date : UTC 2016-01-02 07:39:22

AudioID : 2Format : AACFormat/Info : Advanced Audio CodecFormat profile : LCCodec ID : 40Duration : 1h 57mnBit rate mode : VariableBit rate : 128 KbpsMaximum bit rate : 135 KbpsChannel count : 2 channelsChannel positions : Front: L RSampling rate : 48.0 KHzCompression mode : LossyDelay relative to video : 83msStream size : 107 MiB (5%)Language : RussianEncoded date : UTC 2016-01-01 10:51:47Tagged date : UTC 2016-01-02 07:39:22
[url=...39840292] [/url]

Трекер:  [ 02-Янв-2016 11:30 ]

  

Скачать .torrent

Размер .torrent файла 11 KB


Размер: 2.14 GB
Хэш (hash) релиза: c3f9f15255dfa00a2fa81bc6e1f1ee5cef582aec

Торренты, похожие на [VIDEO] Человек-муравей Ant-Man скачать торрент

Форум Название Автор Размер S L Добавлен
Видео (Фильмы/Клипы) ·· [VIDEO] Человек-муравей / Ant-Man (Пейтон Рид / Peyton Reed) [2015, фантастика, боевик, комедия, приключения, BDRip] [MP4, 1280x] Galfimbul 23091344442.15 GB 0 0 1490684682

10:04

28-Мар-17

Видео (Фильмы/Клипы) ·· [VIDEO] Человек-муравей / Ant-Man (Пейтон Рид / Peyton Reed) [2015, США, фантастика, боевик, комедия, HDRip][MP4, 640x] Dub iTunes Galfimbul 11022169591.03 GB 2 0 1448616510

12:28

27-Ноя-15

Еще никто не оставлял запись к записи скачать торрент [VIDEO] Человек-муравей Ant-Man . Будь первым!

!Обратная связь