wow fuselight by the sea | Fevrier 2017 (2797) | Power Rangers Dino Charge

Скачать через торрент [SERIAL] Секретные материалы The X-Files бесплатно русская версия torrent активатор

Статистика раздачи
Размер:  3.38 GB   |    Зарегистрирован:  2 года 6 месяцев   |    .torrent скачан:  25 раз   |   
Раздают:  1  
   
загрузка...
 
Автор Сообщение

Galfimbul

avatar Galfimbul



Секретные материалы / The X-FilesСезон: 1 из 9
Год выпуска: 1993-2002
Страна: США/Канада
Жанр: фантастика, триллер, детектив
Продолжительность: ~ 00:45:00
Перевод: Профессиональный (полное дублирование) ТВ3
Русские субтитры: нет
Режиссер: Ким Маннерc / Kim Manners, Роб Боумэн / Rob Bowman, Крис Картер / Chris Carter и др.
В ролях: Дэвид Духовны, Джиллиан Андерсон, Митч Пиледжи, Уильям Б. Дэвис, Николас Ли, Том Брэйдвуд, Дин Хаглунд, Брюс Харвуд
Описание: Специальному агенту Дане Скалли, доктору и преподавателю академии ФБР в Вирджинии, поручают работу в паре с агентом Фоксом Малдером над проектом «Секретные материалы», архивом таинственных, нерешенных дел ФБР, которые зачастую связаны с паранормальными явлениями, случаями вампиризма и оборотничества, нападением генетических мутантов, свидетельствами о похищении людей пришельцами…
Малдер верит в пришельцев и пытается убедить скептика Скалли, что не всё и не всегда поддаётся разумному объяснению. В своих дискуссиях Малдер и Скалли не столько стараются убедить друг друга, сколько получают удовольствие от самого общения. Постепенно первоначальное взаимное недоверие перерастает в дружбу, а чуть позже и в более глубокое чувство.
Доп. информация: В данную раздачу планирую постепенно добавить все сезоны сериала, по мере завершения конвертации видео. Следите за обновлениями.
Качество: HDTVRip
Формат: 3GP
Видео кодек: XviD
Аудио кодек: AAC
Видео: XviD, 320x180 (16:9), 320 Kbps, 23.976 fps
Аудио: AAC, 2 ch, 128 Kbps, 48 KHz
1x00. Пилот
1x01. Глубокая глотка
1x02. Узкий
1x03. Канал
1x04. Дьявол из Джерси
1x05. Тени
1x06. Дух из машины
1x07. Лёд
1x08. Космос
1x09. Падший ангел
1x10. Ева
1x11. Огонь
1x12. Где-то за морем
1x13. Транссексуал
1x14. Лазарь
1x15. Юный сердцем
1x16. В.Б.О.
1x17. Чудотворец
1x18. Сущности
1x19. И пала тьма
1x20. Тумс
1x21. Заново рождённый
1x22. Роланд
1x23. Колба Эрленмейера
Общее
Полное имя : D:\Раздачи\The X-Files (HDTVRip) DUB TB3\Season 1\The X-Files 1x01 Deep Throat (HDTVRip).3gp
Формат : MPEG-4
Профиль формата : 3GPP Media Release 4
Идентификатор кодека : 3gp4 (isom/iso2/3gp4)
Размер файла : 146 Мбайт
Продолжительность : 45 м.
Режим общего битрейта : Постоянный
Общий поток : 451 Кбит/сек

Видео
Идентификатор : 1
Формат : MPEG-4 Visual
Профиль формата : [email protected]
Параметр BVOP формата : Нет
Параметр QPel формата : Нет
Параметр GMC формата : Без точки перехода
Параметр матрицы формата : Default (H.263)
Идентификатор кодека : 20
Продолжительность : 45 м.
Вид битрейта : Постоянный
Битрейт : 320 Кбит/сек
Ширина : 320 пикселей
Высота : 180 пикселей
Соотношение сторон : 16:9
Режим частоты кадров : Постоянный
Частота кадров : 23,976 (24000/1001) кадра/сек
Цветовое пространство : YUV
Субдискретизация насыщенности : 4:2:0
Битовая глубина : 8 бит
Тип развёртки : Прогрессивная
Метод сжатия : С потерями
Бит/(Пиксели*Кадры) : 0.232
Размер потока : 103 Мбайт (71%)
Библиотека кодирования : XviD 1.2.1 (UTC 2008-12-04)

Аудио
Идентификатор : 2
Формат : AAC
Формат/Информация : Advanced Audio Codec
Профиль формата : LC
Идентификатор кодека : 40
Продолжительность : 45 м.
Вид битрейта : Постоянный
Битрейт : 128 Кбит/сек
Каналы : 2 канала
Расположение каналов : Front: L R
Частота : 48,0 КГц
Частота кадров : 46,875 кадров/сек (1024 spf)
Метод сжатия : С потерями
Размер потока : 41,5 Мбайт (28%)
Внимание! Раздача ведётся путём добавления новых серий; при каждом добавлении создаётся новый торрент.
Чтобы начать докачку новой серии, пользователям необходимо сделать следующее:
1. Остановить скачивание.
2. Удалить старый торрент у себя из клиента (старые серии удалять не надо).
3. Скачать новый торрент и запустить его у себя в клиенте вместо старого, при этом указать клиенту путь в старую папку куда и должно происходить скачивание новых серий.
Ваш клиент при этом должен произвести хеширование (проверку) старой папки (если не производит сам - помогите ему сделать это), и будет докачивать только те серии которых у вас ещё нет. Старые серии при этом не удаляются, а продолжают раздаваться!
Eсли вы уже удалили старые серии, то предотвратить повторную закачку старых серий можно, отжав галочку в соответсвующих местах при запуске нового торрента.


Трекер:  [ 02-Янв-2016 10:00 ]

  

Скачать .torrent

Размер .torrent файла 19 KB


Размер: 3.38 GB
Хэш (hash) релиза: 56d4538b9e09b5c28118649b440ab793eb8585e8

Еще никто не оставлял запись к записи скачать торрент [SERIAL] Секретные материалы The X-Files . Будь первым!

!Обратная связь