Brotherhood (US) | A Ternura – HD – Legendado Online | Being Human US

Скачать через торрент [VIDEO] Виктор бесплатно русская версия torrent активатор

Статистика раздачи
Размер:  1.42 GB   |    Зарегистрирован:  2 года 6 месяцев   |    .torrent скачан:  17 раз   |   
Раздают:  1  
   
загрузка...
 
Автор Сообщение

Galfimbul

avatar Galfimbul


Виктор / Виктор«Отец... он готов на всё»
Год выпуска: 2014
Страна: Франция, Россия
Жанр: боевик, триллер, драма, криминал
Возраст: 16+

Режиссер: Филиппе Мартинес

В ролях: Жерар Депардьё, Элизабет Хёрли, Евгения Ахременко, Эли Данкер, Фредерик Дюкастель, Жан Баптисте Фильон, Денис Карасёв, Полина Кузминская, Соленн Мариани, Марчелло Маццарелла

Описание: В центре сюжета история бывшего гангстера Виктора Ламбера, специализировавшегося на похищении произведений искусства. Когда-то он жил в России и с тех пор любит эту страну, а также свою бывшую сообщницу Александру Иванову. Проведя пятнадцать лет за решеткой во Франции, Виктор Ламбер возвращается в Москву, чтобы отомстить за смерть своего сына, убитого контрабандистами бриллиантов. Верная подруга Александра помогает ему в этом деле.

Продолжительность: 01:33:50
Перевод: Дублированный
Оригинальная дорожка: нет

Автор рипа:

Качество видео: BDRip Исходник: Blu-Ray (1080i) Формат: mp4
Видео кодек: MPEG-4 AVC Аудио кодек: AAC
Видео: 1280x568 at 25.000 fps, AVC at 2 029 kbps avg, 0.112 bit/pixel
Аудио №1 Rus: 48.0 KHz, AAC, 2 ch, 128.0 Kbps
Субтитры: нет
Навигация по главам: нет
GeneralComplete name : E:\Viktor.2014_KinoGadget.mp4Format : MPEG-4Format profile : Base MediaCodec ID : isomFile size : 1.42 GiBDuration : 1h 33mnOverall bit rate mode : VariableOverall bit rate : 2 165 KbpsMovie name : ВикторPerformer : Филиппе МартинесGenre : Action, Drama, ThrillerContentType : Short FilmRecorded date : 2014Encoded date : UTC 2016-01-01 10:36:36Tagged date : UTC 2016-01-01 18:59:09Cover : Yes

LongDescription : В центре сюжета история бывшего гангстера Виктора Ламбера, специализировавшегося на похищении произведений искусства. Когда-то он жил в России и с тех пор любит эту страну, а также свою бывшую сообщницу Александру Иванову. Проведя пятнадцать лет за решеткой во Франции, Виктор Ламбер возвращается в Москву, чтобы отомстить за смерть своего сына, убитого контрабандистами бриллиантов. Верная подруга Александра помогает ему в этом деле.HDVideo : Yes

VideoID : 1Format : AVCFormat/Info : Advanced Video CodecFormat profile : [email protected] settings, CABAC : YesFormat settings, ReFrames : 11 framesCodec ID : avc1Codec ID/Info : Advanced Video CodingDuration : 1h 33mnBit rate : 2 029 KbpsMaximum bit rate : 25.2 MbpsWidth : 1 280 pixelsHeight : 568 pixelsDisplay aspect ratio : 2.25:1Frame rate mode : ConstantFrame rate : 25.000 fpsColor space : YUVChroma subsampling : 4:2:0Bit depth : 8 bitsScan type : ProgressiveBits/(Pixel*Frame) : 0.112Stream size : 1.33 GiB (94%)Writing library : x264 core 146 r2538 121396cEncoding settings : cabac=1 / ref=11 / deblock=1:-1:-1 / analyse=0x3:0x133 / me=umh / subme=9 / psy=1 / psy_rd=1.00:0.20 / mixed_ref=1 / me_range=32 / chroma_me=1 / trellis=2 / 8x8dct=1 / cqm=0 / deadzone=21,11 / fast_pskip=1 / chroma_qp_offset=-3 / threads=3 / lookahead_threads=1 / sliced_threads=0 / nr=0 / decimate=1 / interlaced=0 / bluray_compat=0 / constrained_intra=0 / bframes=8 / b_pyramid=2 / b_adapt=2 / b_bias=0 / direct=3 / weightb=1 / open_gop=0 / weightp=2 / keyint=250 / keyint_min=25 / scenecut=40 / intra_refresh=0 / rc_lookahead=60 / rc=crf / mbtree=1 / crf=18.0 / qcomp=0.60 / qpmin=0 / qpmax=69 / qpstep=4 / ip_ratio=1.40 / aq=1:1.00Language : EnglishEncoded date : UTC 2016-01-01 10:22:51Tagged date : UTC 2016-01-01 10:37:33

AudioID : 2Format : AACFormat/Info : Advanced Audio CodecFormat profile : LCCodec ID : 40Duration : 1h 33mnBit rate mode : VariableBit rate : 128 KbpsMaximum bit rate : 134 KbpsChannel count : 2 channelsChannel positions : Front: L RSampling rate : 48.0 KHzCompression mode : LossyStream size : 85.9 MiB (6%)Language : RussianEncoded date : UTC 2016-01-01 10:15:20Tagged date : UTC 2016-01-01 10:37:33
[url=...39840292] [/url]

Трекер:  [ 01-Янв-2016 22:30 ]

  

Скачать .torrent

Размер .torrent файла 14 KB


Размер: 1.42 GB
Хэш (hash) релиза: 39631dfb19094ed3f5f346d04d9f178e811dbb68

Торренты, похожие на [VIDEO] Виктор скачать торрент

Форум Название Автор Размер S L Добавлен
Видео (Фильмы/Клипы) ·· [VIDEO] Виктор Васильевич Авилов. Фильмография [VHSRip, SATRip, TVRip, DVDRip] [MP4, 480x] Galfimbul 3694822056234.41 GB 0 0 1460571267

21:14

13-Апр-16

Видео (Фильмы/Клипы) ·· [VIDEO] Виктор Франкенштейн / Victor Frankenstein (Пол МакГиган / Paul McGuigan) [2015, США, ужасы, фантастика, драма, WEB-DLRip][MP4, 640x] Dub iTunes Galfimbul 1004982366958 MB 0 0 1456042406

11:13

21-Фев-16

Видео (Фильмы/Клипы) ·· [VIDEO] Джиперс Криперс: Дилогия / Jeepers Creepers: Dilogy (Виктор Сальва / Victor Salva) [2001 - 2003, ужасы, триллер, HDRip] [MP4, 960x] Dub, VO Гаврилов, DVO, MVO СТС Galfimbul 30333355692.83 GB 0 0 1459086320

16:45

27-Мар-16

Видео (Фильмы/Клипы) ·· [VIDEO] Со мною вот что происходит (Виктор Шамиров) [2012, мелодрама, комедия, SATRip][MP4, 480x] Galfimbul 311830609297 MB 0 0 1356341400

12:30

24-Дек-12

Видео (Фильмы/Клипы) ·· [VIDEO] Дом крокодилов / Виктор и тайна особняка "Крокодил" / Das Haus der Krokodile / Victor and the Secret of Crocodile Mansion (Сирил Босс, Филипп Штеннерт / Cyrill Boss, Philipp Stennert) [2012г, Германия, приключения, HDRip][MP4, 400x] Galfimbul 391902318374 MB 0 0 1356170340

12:59

22-Дек-12

Еще никто не оставлял запись к записи скачать торрент [VIDEO] Виктор . Будь первым!

!Обратная связь