Emma Gleeson | Lady Bird BluRayRip AC3 5.1 | modern digital electronics by r p jain

Скачать через торрент [VIDEO] Миссия невыполнима: Племя изгоев Mission: Impossible - Rogue Nation бесплатно русская версия torrent активатор

Статистика раздачи
Размер:  2.42 GB   |    Зарегистрирован:  2 года 6 месяцев   |    .torrent скачан:  72 раза   |   
Раздают:  1  
   
загрузка...
 
Автор Сообщение

Galfimbul

avatar Galfimbul


Миссия невыполнима: Племя изгоев / Mission: Impossible - Rogue Nation«Go rogue»
Год выпуска: 2015
Оригинальное название: Mission: Impossible - Rogue Nation
Страна: США, Гонконг, Китай
Жанр: боевик, триллер, приключения
Возраст: 16+

Режиссер: Кристофер МакКуорри

В ролях: Том Круз, Ребекка Фергюсон (II), Саймон Пегг, Джереми Реннер, Винг Рэймс, Шон Харрис, Алек Болдуин, Саймон МакБерни, Йенс Хультен, Том Холландер, Чжан Цзинчу, Матео Руфино, Фернандо Абади, Алек Утгофф, Гермиона Корфилд, Найджел Барбер, Уильям Робертс, Патрик Полетти, Мартин Кокрейн, Дэвид Пирт

Описание: Когда ОМН распускают, и Итан Хант остается не у дел, его команда неожиданно сталкивается с разветвленной международной сетью высокопрофессиональных спецагентов — Синдикатом. Это «племя изгоев» одержимо идеей установления нового мирового порядка и планирует серию разрушительных терактов. Итан и компания объединяются с дискредитированным британским агентом Ильзой Фауст и приступают к своей самой невыполнимой миссии…

Продолжительность: 02:11:33
Перевод: Дублированный [лицензия]
Оригинальная дорожка: нет

Автор рипа:

Качество видео: BDRip Исходник: Blu-Ray Remux (1080p) Формат: mp4
Видео кодек: MPEG-4 AVC Аудио кодек: AAC
Видео: 1280x536 at 23.976 fps, AVC at 2 500 kbps avg, 0.152 bit/pixel
Аудио №1 Rus: 48.0 KHz, AAC, 2 ch, CBR, 128.0 Kbps
Субтитры: Русские (Forced), Русские, английские (Forced), английские
Навигация по главам: Есть
GeneralComplete name : E:\Missiya_nevypolnima_plemya_izgoev.2015_KinoGadget.mp4Format : MPEG-4Format profile : Base MediaCodec ID : isomFile size : 2.42 GiBDuration : 2h 11mnOverall bit rate mode : VariableOverall bit rate : 2 635 KbpsMovie name : Миссия невыполнима: Племя изгоевPerformer : Кристофер МакКуорриGenre : Action, Adventure, ThrillerContentType : Short FilmRecorded date : 2015Encoded date : UTC 2015-12-31 12:19:48Tagged date : UTC 2015-12-31 12:28:41Cover : YesContentRating : mpaa|PG-13|300|

LongDescription : Когда ОМН распускают, и Итан Хант остается не у дел, его команда неожиданно сталкивается с разветвленной международной сетью высокопрофессиональных спецагентов — Синдикатом. Это «племя изгоев» одержимо идеей установления нового мирового порядка и планирует серию разрушительных терактов. Итан и компания объединяются с дискредитированным британским агентом Ильзой Фауст и приступают к своей самой невыполнимой миссии…HDVideo : Yes

VideoID : 1Format : AVCFormat/Info : Advanced Video CodecFormat profile : [email protected] settings, CABAC : YesFormat settings, ReFrames : 8 framesCodec ID : avc1Codec ID/Info : Advanced Video CodingDuration : 2h 11mnBit rate : 2 500 KbpsMaximum bit rate : 13.0 MbpsWidth : 1 280 pixelsHeight : 536 pixelsDisplay aspect ratio : 2.40:1Frame rate mode : ConstantFrame rate : 23.976 fpsColor space : YUVChroma subsampling : 4:2:0Bit depth : 8 bitsScan type : ProgressiveBits/(Pixel*Frame) : 0.152Stream size : 2.30 GiB (95%)Writing library : x264 core 146 r2538 121396cEncoding settings : cabac=1 / ref=8 / deblock=1:-1:-1 / analyse=0x3:0x133 / me=umh / subme=7 / psy=1 / psy_rd=1.00:0.00 / mixed_ref=1 / me_range=16 / chroma_me=1 / trellis=2 / 8x8dct=1 / cqm=0 / deadzone=21,11 / fast_pskip=1 / chroma_qp_offset=-2 / threads=3 / lookahead_threads=1 / sliced_threads=0 / nr=0 / decimate=1 / interlaced=0 / bluray_compat=0 / constrained_intra=0 / bframes=3 / b_pyramid=2 / b_adapt=2 / b_bias=0 / direct=3 / weightb=1 / open_gop=0 / weightp=2 / keyint=240 / keyint_min=23 / scenecut=40 / intra_refresh=0 / rc_lookahead=60 / rc=2pass / mbtree=1 / bitrate=2500 / ratetol=1.0 / qcomp=0.60 / qpmin=0 / qpmax=69 / qpstep=4 / cplxblur=20.0 / qblur=0.5 / ip_ratio=1.40 / aq=1:1.00Language : EnglishEncoded date : UTC 2015-12-31 11:24:50Tagged date : UTC 2015-12-31 12:21:38

AudioID : 2Format : AACFormat/Info : Advanced Audio CodecFormat profile : LCCodec ID : 40Duration : 2h 11mnBit rate mode : VariableBit rate : 128 KbpsMaximum bit rate : 135 KbpsChannel count : 2 channelsChannel positions : Front: L RSampling rate : 48.0 KHzCompression mode : LossyStream size : 120 MiB (5%)Language : RussianEncoded date : UTC 2015-12-31 12:08:57Tagged date : UTC 2015-12-31 12:21:38

Text #1ID : 3Format : Timed TextCodec ID : tx3gDuration : 1h 58mnBit rate mode : VariableBit rate : 3 bpsStream size : 2.26 KiB (0%)Title : ForcedLanguage : RussianEncoded date : UTC 2015-12-31 12:21:38Tagged date : UTC 2015-12-31 12:21:38

Text #2ID : 4Format : Timed TextCodec ID : tx3gDuration : 2h 4mnBit rate mode : VariableBit rate : 84 bpsStream size : 76.7 KiB (0%)Language : RussianEncoded date : UTC 2015-12-31 12:21:38Tagged date : UTC 2015-12-31 12:21:38

Text #3ID : 5Format : Timed TextCodec ID : tx3gDuration : 1h 58mnBit rate mode : VariableBit rate : 1 bpsStream size : 735 Bytes (0%)Title : ForcedLanguage : EnglishEncoded date : UTC 2015-12-31 12:21:38Tagged date : UTC 2015-12-31 12:21:38

Text #4ID : 6Format : Timed TextCodec ID : tx3gDuration : 2h 4mnBit rate mode : VariableBit rate : 52 bpsStream size : 47.7 KiB (0%)Language : EnglishEncoded date : UTC 2015-12-31 12:21:38Tagged date : UTC 2015-12-31 12:21:38

Menu00:00:00.000 : 00:00:00.00000:09:53.091 : 00:09:53.09100:20:45.701 : 00:20:45.70100:25:32.071 : 00:25:32.07100:32:00.667 : 00:32:00.66700:40:03.442 : 00:40:03.44200:49:35.554 : 00:49:35.55401:01:01.157 : 01:01:01.15701:09:51.686 : 01:09:51.68601:20:20.856 : 01:20:20.85601:29:29.322 : 01:29:29.32201:38:32.823 : 01:38:32.82301:48:19.408 : 01:48:19.40801:57:13.943 : 01:57:13.94302:03:02.707 : 02:03:02.707
[url=...39840292] [/url]

Трекер:  [ 31-Дек-2015 15:30 ]

  

Скачать .torrent

Размер .torrent файла 12 KB


Размер: 2.42 GB
Хэш (hash) релиза: fb67b58eeb23fcbe9bcc5e2c6eeecf8c00c5239b

Торренты, похожие на [VIDEO] Миссия невыполнима: Племя изгоев Mission: Impossible - Rogue Nation скачать торрент

Форум Название Автор Размер S L Добавлен
Видео (Фильмы/Клипы) ·· [VIDEO] Миссия невыполнима: Племя изгоев / Mission: Impossible - Rogue Nation (Кристофер МакКуорри / Christopher McQuarrie) [2015, США, Гонконг, Китай, боевик, триллер, приключения, HDRip][MP4, 480x] Dub iTunes Galfimbul 635171862606 MB 0 0 1446984205

15:03

8-Ноя-15

Еще никто не оставлял запись к записи скачать торрент [VIDEO] Миссия невыполнима: Племя изгоев Mission: Impossible - Rogue Nation . Будь первым!

!Обратная связь