07-Ghost | Zobacz Magazyn | Safe HDTV

Скачать через торрент [VIDEO] 21 и больше 21 & Over бесплатно русская версия torrent активатор

Статистика раздачи
Размер:  1.99 GB   |    Зарегистрирован:  2 года 7 месяцев   |    .torrent скачан:  23 раза   |   
Раздают:  1  
   
загрузка...
 
Автор Сообщение

Galfimbul

avatar Galfimbul


21 и больше / 21 & Over«Наконец-то»
Год выпуска: 2013
Оригинальное название: 21 & Over
Страна: США
Жанр: комедия
Возраст: 16+

Режиссер: Джон Лукас, Скотт Мур

В ролях: Скайлар Эстин, Сара Райт, Майлз Теллер, Джонатан Кельтц, Джастин Чон, Франсуа Чау, Расселл Ходжкинсон, Дэниэл Буко, Расселл Меркадо, Джози Лорен, Кристьенн Кастельянос, Саманта Фатерман

Описание: Двое друзей подбивают третьего отметить его 21-ый день рождения прямо накануне важного экзамена в медицинский колледж. Никто не замечает, как одна кружка пива превращается в море выпивки, а вечеринка — в бурное и незабываемое приключение с музыкой и девчонками. И где же они окажутся утром?

Продолжительность: 01:33:06
Перевод: Дублированный
Оригинальная дорожка: нет

Автор рипа:

Качество видео: BDRip Исходник: Blu-Ray Remux (1080p) Формат: mp4
Видео кодек: MPEG-4 AVC Аудио кодек: AAC
Видео: 1280x720 at 23.976 fps, AVC at 2 500 kbps avg, 0.133 bit/pixel
Аудио №1 Rus: 48.0 KHz, AAC, 2 ch, CBR, 128.0 Kbps
Субтитры: нет
Навигация по главам: нет
GeneralComplete name : E:\21_i_bolshe.2013_KinoGadget.mp4Format : MPEG-4Format profile : Base MediaCodec ID : isomFile size : 1.99 GiBDuration : 1h 33mnOverall bit rate mode : VariableOverall bit rate : 3 065 KbpsMovie name : 21 и большеPerformer : Джон Лукас, Скотт МурGenre : ComedyContentType : Short FilmRecorded date : 2013Encoded date : UTC 2015-12-31 10:47:17Tagged date : UTC 2015-12-31 10:54:18Cover : YesContentRating : mpaa|R|400|

LongDescription : Двое друзей подбивают третьего отметить его 21-ый день рождения прямо накануне важного экзамена в медицинский колледж. Никто не замечает, как одна кружка пива превращается в море выпивки, а вечеринка — в бурное и незабываемое приключение с музыкой и девчонками. И где же они окажутся утром?HDVideo : Yes

VideoID : 1Format : AVCFormat/Info : Advanced Video CodecFormat profile : [email protected] settings, CABAC : YesFormat settings, ReFrames : 9 framesCodec ID : avc1Codec ID/Info : Advanced Video CodingDuration : 1h 33mnBit rate : 2 930 KbpsMaximum bit rate : 13.5 MbpsWidth : 1 280 pixelsHeight : 720 pixelsDisplay aspect ratio : 16:9Frame rate mode : ConstantFrame rate : 23.976 fpsColor space : YUVChroma subsampling : 4:2:0Bit depth : 8 bitsScan type : ProgressiveBits/(Pixel*Frame) : 0.133Stream size : 1.90 GiB (96%)Writing library : x264 core 146 r2538 121396cEncoding settings : cabac=1 / ref=9 / deblock=1:0:0 / analyse=0x3:0x133 / me=umh / subme=9 / psy=1 / psy_rd=1.00:0.00 / mixed_ref=1 / me_range=32 / chroma_me=1 / trellis=2 / 8x8dct=1 / cqm=0 / deadzone=21,11 / fast_pskip=1 / chroma_qp_offset=-2 / threads=3 / lookahead_threads=1 / sliced_threads=0 / nr=0 / decimate=1 / interlaced=0 / bluray_compat=0 / constrained_intra=0 / bframes=6 / b_pyramid=2 / b_adapt=2 / b_bias=0 / direct=3 / weightb=1 / open_gop=0 / weightp=2 / keyint=240 / keyint_min=23 / scenecut=40 / intra_refresh=0 / rc_lookahead=60 / rc=crf / mbtree=1 / crf=18.0 / qcomp=0.60 / qpmin=0 / qpmax=69 / qpstep=4 / ip_ratio=1.40 / aq=1:1.00Language : EnglishEncoded date : UTC 2015-12-31 10:33:30Tagged date : UTC 2015-12-31 10:48:50

AudioID : 2Format : AACFormat/Info : Advanced Audio CodecFormat profile : LCCodec ID : 40Duration : 1h 33mnBit rate mode : VariableBit rate : 128 KbpsMaximum bit rate : 135 KbpsChannel count : 2 channelsChannel positions : Front: L RSampling rate : 48.0 KHzCompression mode : LossyStream size : 85.2 MiB (4%)Language : RussianEncoded date : UTC 2015-12-31 10:28:48Tagged date : UTC 2015-12-31 10:48:50
[url=...39840292] [/url]

Трекер:  [ 31-Дек-2015 13:30 ]

  

Скачать .torrent

Размер .torrent файла 20 KB


Размер: 1.99 GB
Хэш (hash) релиза: 0544ac2957eceb51784ee414b85eeaf6afbeb45e

Еще никто не оставлял запись к записи скачать торрент [VIDEO] 21 и больше 21 & Over . Будь первым!

!Обратная связь