Фред Татаскьор | Estudios sobre el catolicismo español contemporaneo | Неофициальные сборники (Электронная музыка)

Скачать через торрент [VIDEO] Наркотик Dope бесплатно русская версия torrent активатор

Статистика раздачи
Размер:  1.94 GB   |    Зарегистрирован:  2 года 6 месяцев   |    .torrent скачан:  23 раза   |   
Раздают:  1  
   
загрузка...
 
Автор Сообщение

Galfimbul

avatar Galfimbul


Наркотик / Dope«Трудно быть Гиком»
Год выпуска: 2015
Оригинальное название: Dope
Страна: США
Жанр: драма, комедия, криминал
Возраст: 16+

Режиссер: Рик Фамуйива

В ролях: Раким Мэйерс, Блейк Андерсон, Брюс Битти, Де’андре Бондс, Джулиан Брэнд, Куинси Браун, Кирси Клемонс, Кимберли Элиз, Рик Фокс, Кристофер Гленн

Описание: В центре истории подросток, мечтающий учиться в Гарварде, однако живет он в преступном района Инглвуда, откуда выбраться не так уж и просто.

Продолжительность: 01:43:18
Перевод: Профессиональный многоголосый
Оригинальная дорожка: нет

Автор рипа:

Качество видео: BDRip Исходник: Blu-Ray Remux (1080p) Формат: mp4
Видео кодек: MPEG-4 AVC Аудио кодек: AAC
Видео: 1280x536 at 23.976 fps, AVC at 2 550 kbps avg, 0.155 bit/pixel
Аудио №1 Rus: 48.0 KHz, AAC, 2 ch, CBR, 128.0 Kbps
Субтитры: нет
Навигация по главам: нет
GeneralComplete name : E:\Narkotik.2015_KinoGadget.mp4Format : MPEG-4Format profile : Base MediaCodec ID : isomFile size : 1.94 GiBDuration : 1h 43mnOverall bit rate mode : VariableOverall bit rate : 2 686 KbpsMovie name : НаркотикPerformer : Рик ФамуйиваGenre : Comedy, Crime, DramaContentType : Short FilmRecorded date : 2015Encoded date : UTC 2015-12-31 09:27:19Tagged date : UTC 2015-12-31 09:43:47Cover : YesContentRating : mpaa|R|400|

LongDescription : В центре истории подросток, мечтающий учиться в Гарварде, однако живет он в преступном района Инглвуда, откуда выбраться не так уж и просто.HDVideo : Yes

VideoID : 1Format : AVCFormat/Info : Advanced Video CodecFormat profile : [email protected] settings, CABAC : YesFormat settings, ReFrames : 9 framesCodec ID : avc1Codec ID/Info : Advanced Video CodingDuration : 1h 43mnBit rate : 2 550 KbpsMaximum bit rate : 10.4 MbpsWidth : 1 280 pixelsHeight : 536 pixelsDisplay aspect ratio : 2.40:1Frame rate mode : ConstantFrame rate : 23.976 fpsColor space : YUVChroma subsampling : 4:2:0Bit depth : 8 bitsScan type : ProgressiveBits/(Pixel*Frame) : 0.155Stream size : 1.84 GiB (95%)Writing library : x264 core 146 r2538 121396cEncoding settings : cabac=1 / ref=9 / deblock=1:-1:-1 / analyse=0x3:0x133 / me=umh / subme=9 / psy=1 / psy_rd=1.00:0.00 / mixed_ref=1 / me_range=32 / chroma_me=1 / trellis=2 / 8x8dct=1 / cqm=0 / deadzone=21,11 / fast_pskip=1 / chroma_qp_offset=-2 / threads=3 / lookahead_threads=1 / sliced_threads=0 / nr=0 / decimate=1 / interlaced=0 / bluray_compat=0 / constrained_intra=0 / bframes=6 / b_pyramid=2 / b_adapt=2 / b_bias=0 / direct=3 / weightb=1 / open_gop=0 / weightp=2 / keyint=240 / keyint_min=23 / scenecut=40 / intra_refresh=0 / rc_lookahead=60 / rc=crf / mbtree=1 / crf=18.0 / qcomp=0.60 / qpmin=0 / qpmax=69 / qpstep=4 / ip_ratio=1.40 / aq=1:1.00Language : EnglishEncoded date : UTC 2015-12-31 09:21:31Tagged date : UTC 2015-12-31 09:28:37

AudioID : 2Format : AACFormat/Info : Advanced Audio CodecFormat profile : LCCodec ID : 40Duration : 1h 43mnBit rate mode : VariableBit rate : 128 KbpsMaximum bit rate : 135 KbpsChannel count : 2 channelsChannel positions : Front: L RSampling rate : 48.0 KHzCompression mode : LossyStream size : 94.6 MiB (5%)Language : RussianEncoded date : UTC 2015-12-31 09:16:42Tagged date : UTC 2015-12-31 09:28:37
[url=...39840292] [/url]

Трекер:  [ 31-Дек-2015 12:30 ]

  

Скачать .torrent

Размер .torrent файла 20 KB


Размер: 1.94 GB
Хэш (hash) релиза: 7a6b0d97e915c1b43d8d0c151b25a901e59509fd

Еще никто не оставлял запись к записи скачать торрент [VIDEO] Наркотик Dope . Будь первым!

!Обратная связь