Read More
Privacy Policy

Скачать через торрент [VIDEO] Ганновер-стрит Hanover Street бесплатно русская версия torrent активатор

Статистика раздачи
Размер:  386 MB   |    Зарегистрирован:  2 года 3 месяца   |    .torrent скачан:  10 раз   |   
Раздают:  1  
   
загрузка...
 
Автор Сообщение

Galfimbul

avatar Galfimbul


Ганновер-стрит / Hanover Street

«The fateful entanglements of two men in love with the same woman»
Год выпуска: 1979
Страна: Великобритания
Жанр: боевик, драма, мелодрама, приключения, военный
Продолжительность: 01:48:49
Перевод: Профессиональный (Многоголосый, закадровый) [VHS - ВидеоСервис]
Cубтитры: нет
Режиссеры: Питер Хайамс / Peter Hyams
В ролях: Харрисон Форд, Лесли-Энн Даун, Кристофер Пламмер, Алек МакКоуэн, Ричард Мейсер, Майкл Сакс, Пэтси Кензит, Макс Уолл, Шэйн Риммер, Кит Бакли, Шерри Хьюсон, Синди О’Каллаган, Ди Тревис, Джей Бенедикт, Джон Ратценбергер, Хью Фрейзер, Уильям Хуткинс, Кристин Ховарт, Лесли Уорд, Джордж Правда и другие .
Описание: Отважный пилот Дэйвид Эллоран встречает прекрасную незнакомку, и в пекле страшной войны разгорается страсть влюбленных. Она замужем, но настоящее чувство не разбирает условностей. Однажды Дэйвид получает рискованное задание — доставить за линию фронта британского разведчика с суперсекретной и опасной миссией.
[b]Релиз группы

Качество:WEB-DLRip / [i][url=...502486]рип с WEB-DL 720p[/url]
Формат: MP4
Видео кодек: XviD Аудио кодек: AAC Видео: 480x200 AR: 2.40 361 kbps 23.976 fps
Аудио: [Русский] 2ch 48 kHz 128 kbps [MVO] VHS - ВидеоСервис
ОбщееПолное имя : D:\Torrents\Hanover Street.1979.WEB-DLRip.XviD.480x.rip by Frost O.S.mp4Формат : MPEG-4Профиль формата : Base MediaИдентификатор кодека : isomРазмер файла : 386 МбайтПродолжительность : 1 ч. 48 м.Режим общего битрейта : ПеременныйОбщий поток : 496 Кбит/секНазвание фильма : Hanover Street 1979 WEB-DLRip XviD 480x rip by Frost O SТип содержимого : Short FilmДата кодирования : UTC 2015-12-23 06:40:53Дата пометки : UTC 2015-12-23 06:41:09Программа кодирования : MkvToMp4 version: 0.224 (x64)Обложка : YesПримечание : rip by Frost O.S

ВидеоИдентификатор : 1Формат : MPEG-4 VisualПрофиль формата : Advanced [email protected]Параметр BVOP формата : ДаПараметр QPel формата : НетПараметр GMC формата : Без точки переходаПараметр матрицы формата : ВыборочнаяИдентификатор кодека : 20Продолжительность : 1 ч. 48 м.Вид битрейта : ПеременныйБитрейт : 361 Кбит/секМаксимальный битрейт : 2289 Кбит/секШирина : 480 пикселейВысота : 200 пикселейСоотношение сторон : 2,40:1Режим частоты кадров : ПостоянныйЧастота кадров : 23,976 кадра/секЦветовое пространство : YUVСубдискретизация насыщенности : 4:2:0Битовая глубина : 8 битТип развёртки : ПрогрессивнаяМетод сжатия : С потерямиБит/(Пиксели*Кадры) : 0.157Размер потока : 281 Мбайт (73%)Библиотека кодирования : XviD 73Язык : EnglishДата пометки : UTC 2015-12-23 06:40:57

АудиоИдентификатор : 2Формат : AACФормат/Информация : Advanced Audio CodecПрофиль формата : LCИдентификатор кодека : 40Продолжительность : 1 ч. 48 м.Вид битрейта : ПеременныйБитрейт : 128 Кбит/секМаксимальный битрейт : 132 Кбит/секКаналы : 2 каналаРасположение каналов : Front: L RЧастота : 48,0 КГцМетод сжатия : С потерямиРазмер потока : 99,6 Мбайт (26%)Заголовок : MVO _VHS _ VideoService_ / MVO _VHS _ VideoService_Язык : RussianДата кодирования : UTC 2015-12-23 06:40:54Дата пометки : UTC 2015-12-23 06:40:57


Трекер:  [ 30-Дек-2015 17:00 ]

  

Скачать .torrent

Размер .torrent файла 15 KB


Размер: 386 MB
Хэш (hash) релиза: f0d10e7c7e40a89129d352e430ff2dde4eeed7f8

Торренты, похожие на [VIDEO] Ганновер-стрит Hanover Street скачать торрент

Форум Название Автор Размер S L Добавлен
Видео (Фильмы/Клипы) ·· [VIDEO] Ганновер-стрит / Hanover Street (Питер Хайамс / Peter Hyams) [1979, боевик, драма, мелодрама, приключения, военный, WEB-DLRip] [MP4, 960x] MVO VHS - ВидеоСервис Galfimbul 12516826991.17 GB 0 0 1482827608

11:33

27-Дек-16

Еще никто не оставлял запись к записи скачать торрент [VIDEO] Ганновер-стрит Hanover Street . Будь первым!

!Обратная связь