Télécharger Part 8 | My Dear Boy | Télécharger

Скачать через торрент [VIDEO] Пираты Карибского моря: Квадрология Pirates of the Caribbean: Quadrilogy бесплатно русская версия torrent активатор

Статистика раздачи
Размер:  10.96 GB   |    Зарегистрирован:  2 года 6 месяцев   |    .torrent скачан:  92 раза   |   
Раздают:  1  
   
загрузка...
 
Автор Сообщение

Galfimbul

avatar Galfimbul


Пираты Карибского моря: Квадрология / Pirates of the Caribbean: Quadrilogy

Год выпуска: 2003-2011
Оригинальное название: Pirates of the Caribbean: Collection
Страна: США, Великобритания
Жанр: Фэнтези, боевик, комедия, приключения
Возраст: 12+

Описание: Фильмы о жизни харизматичного авантюриста, капитана Джека Воробья, полная увлекательных приключений, резко меняющаяся в каждом моменте его жизни, то в экспедиции с с целью спасения девушки, то просто в том, что он жизни должен отдать за что-то... Квадрология прекрасна во всех ее 4-х фильмах и ее стоит посмотреть, чтобы оценить прелесть моря, спецэффектов и и великолепной игры Джонни Деппа.

Перевод: Дублированный

Автор рипа:

Качество видео: BDRip Исходник: Blu-Ray (1080p) Формат: mp4
Видео кодек: MPEG-4 AVC Аудио кодек: AAC
Видео: 1280x536(1280x544) at 23.976 fps, AVC at 2 500 kbps avg
Аудио №1 Rus: 48.0 KHz, AAC, 2 ch, CBR, 128.0 Kbps
Субтитры: нет
Навигация по главам: нет
Пираты Карибского моря: Проклятие Черной жемчужины / Pirates of the Caribbean: The Curse of the Black Pearl«Over 3000 Islands of Paradise -- For Some it's A Blessing -- For Others... It's A Curse»
Год выпуска: 2003
Оригинальное название: Pirates of the Caribbean: The Curse of the Black Pearl
Страна: США
Жанр: фэнтези, боевик, приключения
Возраст: 12+

Режиссер: Гор Вербински

В ролях: Джонни Депп, Джеффри Раш, Орландо Блум, Кира Найтли, Джек Девенпорт, Джонатан Прайс, Ли Аренберг, Маккензи Крук, Дамиан О`Харе, Джиллз Нью, Билл Найи, Кевин МакНэлли, Дэвид Бейли, Стеллан Скарсгард, Том Холландер, Алекс Нортон, Лоурен Мехер, Энтони Патрицио, Сан Шелла, Уинстон Эллис, Кристофер Адамсон, Ричард Гриффитс

Описание: Жизнь харизматичного авантюриста, капитана Джека Воробья, полная увлекательных приключений, резко меняется, когда его заклятый враг — капитан Барбосса — похищает корабль Джека, Черную Жемчужину, а затем нападает на Порт Ройал и крадет прекрасную дочь губернатора, Элизабет Свонн.

Друг детства Элизабет, Уилл Тернер, вместе с Джеком возглавляет спасательную экспедицию на самом быстром корабле Британии, в попытке вызволить девушку из плена и заодно отобрать у злодея Черную Жемчужину. Вслед за этой парочкой отправляется амбициозный коммодор Норрингтон, который к тому же числится женихом Элизабет.

Однако Уилл не знает, что над Барбоссой висит вечное проклятие, при лунном свете превращающее его с командой в живых скелетов. Проклятье будет снято лишь тогда, когда украденное золото Ацтеков будет возвращено пиратами на старое место.

Продолжительность: 02:23:20
Перевод: Дублированный
Оригинальная дорожка: нет

Автор рипа:

Качество видео: BDRip Исходник: Blu-Ray (1080p) Формат: mp4
Видео кодек: MPEG-4 AVC Аудио кодек: AAC
Видео: 1280x544 at 23.976 fps, AVC at 2 500 kbps avg, 0.150 bit/pixel
Аудио №1 Rus: 48.0 KHz, AAC, 2 ch, CBR, 128.0 Kbps
Субтитры: нет
Навигация по главам: нет
GeneralComplete name : D:\VideoRip\Proklyatie_chernoj_zhemchuzhiny.2003_KinoGadget.mp4Format : MPEG-4Format profile : Base MediaCodec ID : isomFile size : 2.64 GiBDuration : 2h 23mnOverall bit rate mode : VariableOverall bit rate : 2 633 KbpsMovie name : Пираты Карибского моря_Проклятие Черной жемчужиныPerformer : Гор ВербинскиGenre : Action, AdventureContentType : Short FilmRecorded date : 2003Encoded date : UTC 2015-12-29 08:00:37Tagged date : UTC 2015-12-29 08:07:32Cover : YesContentRating : mpaa|PG-13|300|

LongDescription : Жизнь харизматичного авантюриста, капитана Джека Воробья, полная увлекательных приключений, резко меняется, когда его заклятый враг — капитан Барбосса — похищает корабль Джека, Черную Жемчужину, а затем нападает на Порт Ройал и крадет прекрасную дочь губернатора, Элизабет Свонн.HDVideo : Yes

VideoID : 1Format : AVCFormat/Info : Advanced Video CodecFormat profile : [email protected] settings, CABAC : YesFormat settings, ReFrames : 8 framesCodec ID : avc1Codec ID/Info : Advanced Video CodingDuration : 2h 23mnBit rate : 2 500 KbpsMaximum bit rate : 15.4 MbpsWidth : 1 280 pixelsHeight : 544 pixelsDisplay aspect ratio : 2.35:1Frame rate mode : ConstantFrame rate : 23.976 fpsColor space : YUVChroma subsampling : 4:2:0Bit depth : 8 bitsScan type : ProgressiveBits/(Pixel*Frame) : 0.150Stream size : 2.50 GiB (95%)Writing library : x264 core 146 r2538 121396cEncoding settings : cabac=1 / ref=8 / deblock=1:-1:-1 / analyse=0x3:0x133 / me=umh / subme=7 / psy=1 / psy_rd=1.00:0.00 / mixed_ref=1 / me_range=16 / chroma_me=1 / trellis=2 / 8x8dct=1 / cqm=0 / deadzone=21,11 / fast_pskip=1 / chroma_qp_offset=-2 / threads=3 / lookahead_threads=1 / sliced_threads=0 / nr=0 / decimate=1 / interlaced=0 / bluray_compat=0 / constrained_intra=0 / bframes=3 / b_pyramid=2 / b_adapt=2 / b_bias=0 / direct=3 / weightb=1 / open_gop=0 / weightp=2 / keyint=240 / keyint_min=23 / scenecut=40 / intra_refresh=0 / rc_lookahead=60 / rc=2pass / mbtree=1 / bitrate=2500 / ratetol=1.0 / qcomp=0.60 / qpmin=0 / qpmax=69 / qpstep=4 / cplxblur=20.0 / qblur=0.5 / ip_ratio=1.40 / aq=1:1.00Language : EnglishEncoded date : UTC 2015-12-29 07:56:59Tagged date : UTC 2015-12-29 08:02:31

AudioID : 2Format : AACFormat/Info : Advanced Audio CodecFormat profile : LCCodec ID : 40Duration : 2h 23mnBit rate mode : VariableBit rate : 128 KbpsMaximum bit rate : 135 KbpsChannel count : 2 channelsChannel positions : Front: L RSampling rate : 48.0 KHzCompression mode : LossyStream size : 131 MiB (5%)Language : RussianEncoded date : UTC 2015-12-29 07:49:11Tagged date : UTC 2015-12-29 08:02:31
Пираты Карибского моря: Сундук мертвеца / Pirates of the Caribbean: Dead Man's Chest«Jack is back! Never trust a pirate!»
Год выпуска: 2006
Оригинальное название: Pirates of the Caribbean: Dead Man's Chest
Страна: США
Жанр: фэнтези, боевик, приключения
Возраст: 12+

Режиссер: Гор Вербински

В ролях: Джонни Депп, Джеффри Раш, Орландо Блум, Кира Найтли, Джек Девенпорт, Джонатан Прайс, Ли Аренберг, Маккензи Крук, Дамиан О`Харе, Джиллз Нью, Билл Найи, Кевин МакНэлли, Дэвид Бейли, Стеллан Скарсгард, Том Холландер, Пенелопа Крус, Астрид Берже-Фрисби, Стивен Грэм, Кейт Ричардс, Ричард Гриффитс, Грег Эллис, Кристофер Фэйрбенк

Описание: Вновь оказавшись в ирреальном мире, лихой капитан Джек Воробей неожиданно узнает, что является должником легендарного капитана «Летучего Голландца» Дэйви Джонса. Джек должен в кратчайшие сроки решить эту проблему, иначе ему грозит вечное проклятие и рабское существование после смерти. Вдобавок ко всему, срывается свадьба Уилла Тернера и Элизабет Суонн, которые вынуждены составить Джеку компанию в его злоключениях…

Продолжительность: 02:30:41
Перевод: Дублированный
Оригинальная дорожка: нет

Автор рипа:

Качество видео: BDRip Исходник: Blu-Ray (1080p) Формат: mp4
Видео кодек: MPEG-4 AVC Аудио кодек: AAC
Видео: 1280x536 at 23.976 fps, AVC at 2 500 kbps avg, 0.152 bit/pixel
Аудио №1 Rus: 48.0 KHz, AAC, 2 ch, CBR, 128.0 Kbps
Субтитры: нет
Навигация по главам: нет
GeneralComplete name : D:\VideoRip\Пираты Карибского моря.2003-2011.Коллекция_KinoGadget\Sunduk_mertveca.2006_KinoGadget.mp4Format : MPEG-4Format profile : Base MediaCodec ID : isomFile size : 2.77 GiBDuration : 2h 30mnOverall bit rate mode : VariableOverall bit rate : 2 636 KbpsMovie name : Пираты Карибского моря: Сундук мертвецаPerformer : Гор ВербинскиGenre : Action, AdventureContentType : Short FilmRecorded date : 2006Encoded date : UTC 2015-12-29 08:42:30Tagged date : UTC 2015-12-29 08:49:24Cover : YesContentRating : mpaa|PG-13|300|

LongDescription : Вновь оказавшись в ирреальном мире, лихой капитан Джек Воробей неожиданно узнает, что является должником легендарного капитана «Летучего Голландца» Дэйви Джонса. Джек должен в кратчайшие сроки решить эту проблему, иначе ему грозит вечное проклятие и рабское существование после смерти. Вдобавок ко всему, срывается свадьба Уилла Тернера и Элизабет Суонн, которые вынуждены составить Джеку компанию в его злоключениях…HDVideo : Yes

VideoID : 1Format : AVCFormat/Info : Advanced Video CodecFormat profile : [email protected] settings, CABAC : YesFormat settings, ReFrames : 8 framesCodec ID : avc1Codec ID/Info : Advanced Video CodingDuration : 2h 30mnBit rate : 2 500 KbpsMaximum bit rate : 15.3 MbpsWidth : 1 280 pixelsHeight : 536 pixelsDisplay aspect ratio : 2.40:1Frame rate mode : ConstantFrame rate : 23.976 fpsColor space : YUVChroma subsampling : 4:2:0Bit depth : 8 bitsScan type : ProgressiveBits/(Pixel*Frame) : 0.152Stream size : 2.63 GiB (95%)Writing library : x264 core 146 r2538 121396cEncoding settings : cabac=1 / ref=8 / deblock=1:-1:-1 / analyse=0x3:0x133 / me=umh / subme=7 / psy=1 / psy_rd=1.00:0.00 / mixed_ref=1 / me_range=16 / chroma_me=1 / trellis=2 / 8x8dct=1 / cqm=0 / deadzone=21,11 / fast_pskip=1 / chroma_qp_offset=-2 / threads=3 / lookahead_threads=1 / sliced_threads=0 / nr=0 / decimate=1 / interlaced=0 / bluray_compat=0 / constrained_intra=0 / bframes=3 / b_pyramid=2 / b_adapt=2 / b_bias=0 / direct=3 / weightb=1 / open_gop=0 / weightp=2 / keyint=240 / keyint_min=23 / scenecut=40 / intra_refresh=0 / rc_lookahead=60 / rc=2pass / mbtree=1 / bitrate=2500 / ratetol=1.0 / qcomp=0.60 / qpmin=0 / qpmax=69 / qpstep=4 / cplxblur=20.0 / qblur=0.5 / ip_ratio=1.40 / aq=1:1.00Language : EnglishEncoded date : UTC 2015-12-29 08:31:00Tagged date : UTC 2015-12-29 08:44:29

AudioID : 2Format : AACFormat/Info : Advanced Audio CodecFormat profile : LCCodec ID : 40Duration : 2h 30mnBit rate mode : VariableBit rate : 128 KbpsMaximum bit rate : 135 KbpsChannel count : 2 channelsChannel positions : Front: L RSampling rate : 48.0 KHzCompression mode : LossyStream size : 138 MiB (5%)Language : RussianEncoded date : UTC 2015-12-29 08:32:17Tagged date : UTC 2015-12-29 08:44:29
Пираты Карибского моря: На краю Света / Pirates of the Caribbean: At World's End«At the End of the World, the Adventure Begins»
Год выпуска: 2007
Оригинальное название: Pirates of the Caribbean: At World's End
Страна: США
Жанр: фэнтези, боевик, приключения
Возраст: 12+

Режиссер: Гор Вербински

В ролях: Джонни Депп, Джеффри Раш, Орландо Блум, Кира Найтли, Джек Девенпорт, Джонатан Прайс, Ли Аренберг, Маккензи Крук, Дамиан О`Харе, Джиллз Нью, Билл Найи, Кевин МакНэлли, Дэвид Бейли, Стеллан Скарсгард, Том Холландер, Пенелопа Крус, Астрид Берже-Фрисби, Стивен Грэм, Кейт Ричардс, Ричард Гриффитс, Грег Эллис, Кристофер Фэйрбенк

Описание: Новые приключения Джека Воробья и его друзей Уилла Тернера и Элизабет Суонн. На этот раз Уиллу и Элизабет придется объединиться с самим Капитаном Барбоссой для того, чтобы отправиться на край света и спасти своего друга — Джека. Ситуация осложняется тем, что Элизабет попадает к сингапурским пиратам…

Продолжительность: 02:48:31
Перевод: Дублированный
Оригинальная дорожка: нет

Автор рипа:

Качество видео: BDRip 720p Исходник: Blu-Ray (1080p) Формат: mp4
Видео кодек: MPEG-4 AVC Аудио кодек: AAC
Видео: 1280x536 at 23.976 fps, AVC at 2 500 kbps avg, 0.152 bit/pixel
Аудио №1 Rus: 48.0 KHz, AAC, 2 ch, CBR, 128.0 Kbps
Субтитры: нет
Навигация по главам: нет
GeneralComplete name : D:\VideoRip\Na_krayu_sveta.2007_KinoGadget.mp4Format : MPEG-4Format profile : Base MediaCodec ID : isomFile size : 3.10 GiBDuration : 2h 48mnOverall bit rate mode : VariableOverall bit rate : 2 636 KbpsMovie name : Пираты Карибского моря: На краю СветаPerformer : Гор ВербинскиGenre : Action, AdventureContentType : Short FilmRecorded date : 2007Encoded date : UTC 2015-12-29 09:18:09Tagged date : UTC 2015-12-29 09:25:50Cover : YesContentRating : mpaa|PG-13|300|

LongDescription : Новые приключения Джека Воробья и его друзей Уилла Тернера и Элизабет Суонн. На этот раз Уиллу и Элизабет придется объединиться с самим Капитаном Барбоссой для того, чтобы отправиться на край света и спасти своего друга — Джека. Ситуация осложняется тем, что Элизабет попадает к сингапурским пиратам…HDVideo : Yes

VideoID : 1Format : AVCFormat/Info : Advanced Video CodecFormat profile : [email protected] settings, CABAC : YesFormat settings, ReFrames : 8 framesCodec ID : avc1Codec ID/Info : Advanced Video CodingDuration : 2h 48mnBit rate : 2 500 KbpsMaximum bit rate : 14.2 MbpsWidth : 1 280 pixelsHeight : 536 pixelsDisplay aspect ratio : 2.40:1Frame rate mode : ConstantFrame rate : 23.976 fpsColor space : YUVChroma subsampling : 4:2:0Bit depth : 8 bitsScan type : ProgressiveBits/(Pixel*Frame) : 0.152Stream size : 2.94 GiB (95%)Writing library : x264 core 146 r2538 121396cEncoding settings : cabac=1 / ref=8 / deblock=1:-1:-1 / analyse=0x3:0x133 / me=umh / subme=7 / psy=1 / psy_rd=1.00:0.00 / mixed_ref=1 / me_range=16 / chroma_me=1 / trellis=2 / 8x8dct=1 / cqm=0 / deadzone=21,11 / fast_pskip=1 / chroma_qp_offset=-2 / threads=3 / lookahead_threads=1 / sliced_threads=0 / nr=0 / decimate=1 / interlaced=0 / bluray_compat=0 / constrained_intra=0 / bframes=3 / b_pyramid=2 / b_adapt=2 / b_bias=0 / direct=3 / weightb=1 / open_gop=0 / weightp=2 / keyint=240 / keyint_min=23 / scenecut=40 / intra_refresh=0 / rc_lookahead=60 / rc=2pass / mbtree=1 / bitrate=2500 / ratetol=1.0 / qcomp=0.60 / qpmin=0 / qpmax=69 / qpstep=4 / cplxblur=20.0 / qblur=0.5 / ip_ratio=1.40 / aq=1:1.00Language : EnglishEncoded date : UTC 2015-12-29 08:49:09Tagged date : UTC 2015-12-29 09:20:23

AudioID : 2Format : AACFormat/Info : Advanced Audio CodecFormat profile : LCCodec ID : 40Duration : 2h 48mnBit rate mode : VariableBit rate : 128 KbpsMaximum bit rate : 135 KbpsChannel count : 2 channelsChannel positions : Front: L RSampling rate : 48.0 KHzCompression mode : LossyStream size : 154 MiB (5%)Language : RussianEncoded date : UTC 2015-12-29 09:06:36Tagged date : UTC 2015-12-29 09:20:23
Пираты Карибского моря: На странных берегах / Pirates of the Caribbean: On Stranger Tides«Live Forever or Die Trying...»
Год выпуска: 2011
Оригинальное название: Pirates of the Caribbean: On Stranger Tides
Страна: США, Великобритания
Жанр: фэнтези, боевик, комедия, приключения
Возраст: 12+

Режиссер: Роб Маршалл

В ролях: Джонни Депп, Джеффри Раш, Орландо Блум, Кира Найтли, Джек Девенпорт, Джонатан Прайс, Ли Аренберг, Маккензи Крук, Дамиан О`Харе, Джиллз Нью, Билл Найи, Кевин МакНэлли, Дэвид Бейли, Стеллан Скарсгард, Том Холландер, Пенелопа Крус, Астрид Берже-Фрисби, Стивен Грэм, Кейт Ричардс, Ричард Гриффитс, Грег Эллис, Кристофер Фэйрбенк

Описание: В новой истории о поисках истины, предательстве, вечной молодости и смертельной опасности капитану Джеку Воробью предстоит столкнуться с женщиной из своего прошлого Анжеликой. До самого конца не будет понятно, связывает ли их настоящая любовь, или же Анжелика искусно притворяется, чтобы вместе с Джеком добраться до таинственного источника вечной молодости.

Она силой принуждает капитана Джека Воробья взойти на корабль «Месть Королевы Анны», которым управляет коварный злодей Черная Борода. Наш герой оказывается в ситуации, когда он не знает, чего ему бояться больше — ужасного злодея или же свою давнюю подругу.

Продолжительность: 02:12:49
Перевод: Дублированный
Оригинальная дорожка: нет

Автор рипа:

Качество видео: BDRip Исходник: Blu-Ray (1080p) Формат: mp4
Видео кодек: MPEG-4 AVC Аудио кодек: AAC
Видео: 1280x536 at 23.976 fps, AVC at 2 500 kbps avg, 0.152 bit/pixel
Аудио №1 Rus: 48.0 KHz, AAC, 2 ch, CBR, 128.0 Kbps
Субтитры: нет
Навигация по главам: нет
GeneralComplete name : D:\VideoRip\Na_strannyx_beregax.2011_KinoGadget.mp4Format : MPEG-4Format profile : Base MediaCodec ID : isomFile size : 2.45 GiBDuration : 2h 12mnOverall bit rate mode : VariableOverall bit rate : 2 636 KbpsMovie name : Пираты Карибского моря_На странных берегахPerformer : Роб МаршаллGenre : Action, AdventureContentType : Short FilmRecorded date : 2011Encoded date : UTC 2015-12-29 09:38:45Tagged date : UTC 2015-12-29 09:45:42Cover : YesContentRating : mpaa|PG-13|300|

LongDescription : В новой истории о поисках истины, предательстве, вечной молодости и смертельной опасности капитану Джеку Воробью предстоит столкнуться с женщиной из своего прошлого Анжеликой. До самого конца не будет понятно, связывает ли их настоящая любовь, или же Анжелика искусно притворяется, чтобы вместе с Джеком добраться до таинственного источника вечной молодости.HDVideo : Yes

VideoID : 1Format : AVCFormat/Info : Advanced Video CodecFormat profile : [email protected] settings, CABAC : YesFormat settings, ReFrames : 8 framesCodec ID : avc1Codec ID/Info : Advanced Video CodingDuration : 2h 12mnBit rate : 2 500 KbpsMaximum bit rate : 17.1 MbpsWidth : 1 280 pixelsHeight : 536 pixelsDisplay aspect ratio : 2.40:1Frame rate mode : ConstantFrame rate : 23.976 fpsColor space : YUVChroma subsampling : 4:2:0Bit depth : 8 bitsScan type : ProgressiveBits/(Pixel*Frame) : 0.152Stream size : 2.32 GiB (95%)Writing library : x264 core 146 r2538 121396cEncoding settings : cabac=1 / ref=8 / deblock=1:-1:-1 / analyse=0x3:0x133 / me=umh / subme=7 / psy=1 / psy_rd=1.00:0.00 / mixed_ref=1 / me_range=16 / chroma_me=1 / trellis=2 / 8x8dct=1 / cqm=0 / deadzone=21,11 / fast_pskip=1 / chroma_qp_offset=-2 / threads=3 / lookahead_threads=1 / sliced_threads=0 / nr=0 / decimate=1 / interlaced=0 / bluray_compat=0 / constrained_intra=0 / bframes=3 / b_pyramid=2 / b_adapt=2 / b_bias=0 / direct=3 / weightb=1 / open_gop=0 / weightp=2 / keyint=240 / keyint_min=23 / scenecut=40 / intra_refresh=0 / rc_lookahead=60 / rc=2pass / mbtree=1 / bitrate=2500 / ratetol=1.0 / qcomp=0.60 / qpmin=0 / qpmax=69 / qpstep=4 / cplxblur=20.0 / qblur=0.5 / ip_ratio=1.40 / aq=1:1.00Language : EnglishEncoded date : UTC 2015-12-29 09:03:17Tagged date : UTC 2015-12-29 09:40:50

AudioID : 2Format : AACFormat/Info : Advanced Audio CodecFormat profile : LCCodec ID : 40Duration : 2h 12mnBit rate mode : VariableBit rate : 128 KbpsMaximum bit rate : 135 KbpsChannel count : 2 channelsChannel positions : Front: L RSampling rate : 48.0 KHzCompression mode : LossyStream size : 122 MiB (5%)Language : RussianEncoded date : UTC 2015-12-29 09:28:09Tagged date : UTC 2015-12-29 09:40:50
[url=...39840292] [/url]

Трекер:  [ 29-Дек-2015 12:30 ]

  

Скачать .torrent

Размер .torrent файла 28 KB


Размер: 10.96 GB
Хэш (hash) релиза: e129e38bef596632a7cf179ed8b60295261c35ec

xeca

No better than pirates of the Caribbean:On stranger tides -http://blissinstalls.com/600958-12 that 57GB

Хотите добавить комментарий к записи скачать торрент [VIDEO] Пираты Карибского моря: Квадрология Pirates of the Caribbean: Quadrilogy

!Обратная связь