Suki na Mono wa Suki Dakara Shou ga Nai!! | Top Gear: Season 22 (2015) | Daniel Radcliffe

Скачать через торрент [VIDEO] Морские котики против зомби Navy SEALs vs. Zombies бесплатно русская версия torrent активатор

Статистика раздачи
Размер:  1.78 GB   |    Зарегистрирован:  2 года 6 месяцев   |    .torrent скачан:  32 раза   |   
Раздают:  1  
   
загрузка...
 
Автор Сообщение

Galfimbul

avatar Galfimbul


Морские котики против зомби / Navy SEALs vs. Zombies

Год выпуска: 2015
Оригинальное название: Navy SEALs vs. Zombies
Страна: США
Жанр: ужасы, боевик
Возраст: 18+

Режиссер: Стэнтон Баррет

В ролях: Стефани Онор, Джером Эндрис, Сью-Линн Ансари, Джон Эперсон, Назима Бартек, Джеки Бекер, Сара Бенджамин, Массимо Добрович, Майкл К. Дуглас, Майкл Дудикофф

Описание: Когда происходит вспышка смертельной инфекции, превращающей людей в яростных зомби, группа опытных бойцов из отряда «морских котиков» сражается с армией нежити в погружённом в хаос Новом Орлеане за свои жизни и жизни всех жителей города, чтобы не дать вирусу распространиться дальше.

Продолжительность: 01:37:51
Перевод: Любительский двухголосый [Ох! Студия]
Оригинальная дорожка: нет

Автор рипа:

Качество видео: BDRip Исходник: Blu-Ray Remux (1080p) Формат: mp4
Видео кодек: MPEG-4 AVC Аудио кодек: AAC
Видео: 1280x720 at 23.976 fps, AVC at 2 500 kbps avg, 0.113 bit/pixel
Аудио №1 Rus: 48.0 KHz, AAC, 2 ch, CBR, 128.0 Kbps
Субтитры: нет
Навигация по главам: нет
GeneralComplete name : E:\Morskie_kotiki_protiv_zombi.2015_KinoGadget.mp4Format : MPEG-4Format profile : Base MediaCodec ID : isomFile size : 1.78 GiBDuration : 1h 37mnOverall bit rate mode : VariableOverall bit rate : 2 611 KbpsMovie name : Морские котики против зомбиPerformer : Стэнтон БарретGenre : Action, HorrorContentType : Short FilmRecorded date : 2015Encoded date : UTC 2015-12-28 13:39:31Tagged date : UTC 2015-12-29 06:00:04Cover : Yes

LongDescription : Когда происходит вспышка смертельной инфекции, превращающей людей в яростных зомби, группа опытных бойцов из отряда «морских котиков» сражается с армией нежити в погружённом в хаос Новом Орлеане за свои жизни и жизни всех жителей города, чтобы не дать вирусу распространиться дальше.HDVideo : Yes

VideoID : 1Format : AVCFormat/Info : Advanced Video CodecFormat profile : [email protected] settings, CABAC : YesFormat settings, ReFrames : 8 framesCodec ID : avc1Codec ID/Info : Advanced Video CodingDuration : 1h 36mnBit rate : 2 500 KbpsMaximum bit rate : 18.4 MbpsWidth : 1 280 pixelsHeight : 720 pixelsDisplay aspect ratio : 16:9Frame rate mode : ConstantFrame rate : 23.976 fpsColor space : YUVChroma subsampling : 4:2:0Bit depth : 8 bitsScan type : ProgressiveBits/(Pixel*Frame) : 0.113Stream size : 1.69 GiB (95%)Writing library : x264 core 146 r2538 121396cEncoding settings : cabac=1 / ref=8 / deblock=1:-1:-1 / analyse=0x3:0x133 / me=umh / subme=7 / psy=1 / psy_rd=1.00:0.00 / mixed_ref=1 / me_range=16 / chroma_me=1 / trellis=2 / 8x8dct=1 / cqm=0 / deadzone=21,11 / fast_pskip=1 / chroma_qp_offset=-2 / threads=3 / lookahead_threads=1 / sliced_threads=0 / nr=0 / decimate=1 / interlaced=0 / bluray_compat=0 / constrained_intra=0 / bframes=3 / b_pyramid=2 / b_adapt=2 / b_bias=0 / direct=3 / weightb=1 / open_gop=0 / weightp=2 / keyint=240 / keyint_min=23 / scenecut=40 / intra_refresh=0 / rc_lookahead=60 / rc=2pass / mbtree=1 / bitrate=2500 / ratetol=1.0 / qcomp=0.60 / qpmin=0 / qpmax=69 / qpstep=4 / cplxblur=20.0 / qblur=0.5 / ip_ratio=1.40 / aq=1:1.00Language : EnglishEncoded date : UTC 2015-12-28 13:31:08Tagged date : UTC 2015-12-28 13:43:25

AudioID : 2Format : AACFormat/Info : Advanced Audio CodecFormat profile : LCCodec ID : 40Duration : 1h 37mnBit rate mode : VariableBit rate : 128 KbpsMaximum bit rate : 135 KbpsChannel count : 2 channelsChannel positions : Front: L RSampling rate : 48.0 KHzCompression mode : LossyStream size : 89.6 MiB (5%)Language : RussianEncoded date : UTC 2015-12-28 13:31:43Tagged date : UTC 2015-12-28 13:43:25
[url=...39840292] [/url]

Трекер:  [ 29-Дек-2015 08:30 ]

  

Скачать .torrent

Размер .torrent файла 18 KB


Размер: 1.78 GB
Хэш (hash) релиза: 951450de322cb1a287c97560c80ed5d133364db1

Еще никто не оставлял запись к записи скачать торрент [VIDEO] Морские котики против зомби Navy SEALs vs. Zombies . Будь первым!

!Обратная связь