Detective Conan Episode 580 Subtitle Indonesia | Télécharger Part 8 | More Details

Скачать через торрент музыку Афросамурай: Воскрешение Afro Samurai: Resurrection бесплатно без регистрации torrent

Статистика раздачи
Размер:  400 MB   |    Зарегистрирован:  2 года 6 месяцев   |    .torrent скачан:  31 раз   |   
Раздают:  1  
   
загрузка...
 
Автор Сообщение

Galfimbul

avatar Galfimbul


AFRO SAMURAI RESURRECTION
The Soundtrack

Название альбома: The RZA Presents: Afro Samurai Resurrection The Soundtrack
Год выпуска: 2009 г.
Страна: США
Жанр: Хип Хоп, Рэп
Аудио кодек: FLAC (*.flac)
Тип рипа: tracks+.cue
Битрейт аудио: lossless
Продолжительность: 1:00:09
Наличие сканов в содержимом раздачи: нет

Треклист:

01 RZA & P. Dot Combat (Afro Season II Open Theme) (2:51)
02 Kool G Rap, Inspectah Deck & Suga Bang You Already Know (2:49)
03 Reverend William Burks, Sly Stone & Stone Mecca Blood Thicker Than Mud (Family Affair) (3:34)
04 Kool G Rap, Ghostface Killah, Tash Mahogany & The RZA Whar (4:26)
05 Rah Digga & Stone Mecca Girl Samurai Lullaby (3:21)
06 Thea Van Seijen Fight For You (2:02)
07 Rah Digga Bitch Gonna Get Ya (3:38)
08 Prodigal Sunn & Thea Van Seijen Bloody Days Bloody Nights (1:48)
09 Rugged Monk Kill Kill Kill (2:44)
10 Boy Jones Nappy Afro (3:37)
11 Black Knights, Dexter Wiggles & Thea Van Seijen Bloody Samurai (3:35)
12 Killah Priest, Prodigal Sunn & Shavo Dead Birds (2:23)
13 Ace & Moe Roc Arch Nemesis (2:49)
14 Reverend William Burks, The RZA & Infinite Brother's Keeper (3:43)
15 Ace & Moe Roc Yellow Jackets (3:05)
16 60 Second Assassin, Leggezin, Crisi, Christ Bearer, Rugged Monk, Tre Irie, Kinetic, Reverend William Burks & Bobby Digital Take The Sword Part III (10:51)
17 RZA & 9th Prince Number One Samurai (Afro Season II Outro) (2:56)

Credits:

Artwork – Takashi Okazaki
Design – Benjamin Wheelock
Executive-Producer – Mitchell "Divine" Diggs, Robert F. Diggs
Mastered By – Tony Dawsey
Producer – RZA
Programmed By – RZA
Exact Audio Copy V1.0 beta 2 from 29. April 2011

EAC extraction logfile from 17. June 2011, 18:21

Various / The RZA Presents Afro Samurai Resurection The Soundtrack

Used drive : ASUS DRW-24B1ST a Adapter: 2 ID: 0

Read mode : SecureUtilize accurate stream : YesDefeat audio cache : YesMake use of C2 pointers : No

Read offset correction : 6Overread into Lead-In and Lead-Out : NoFill up missing offset samples with silence : YesDelete leading and trailing silent blocks : NoNull samples used in CRC calculations : YesUsed interface : Native Win32 interface for Win NT & 2000Gap handling : Appended to previous track

Used output format : User Defined EncoderSelected bitrate : 1024 kBit/sQuality : HighAdd ID3 tag : NoCommand line compressor : C:\Program Files (x86)\Exact Audio Copy\Flac\flac.exeAdditional command line options : -8 -V -T "ARTIST=%artist%" -T "TITLE=%title%" -T "ALBUM=%albumtitle%" -T "DATE=%year%" -T "TRACKNUMBER=%tracknr%" -T "GENRE=%genre%" -T "PERFORMER=%albuminterpret%" -T "COMPOSER=%composer%" %haslyrics%--tag-from-file=LYRICS

TOC of the extracted CD

Track | Start | Length | Start sector | End sector --------------------------------------------------------- 1 | 0:00.00 | 2:50.46 | 0 | 12795 2 | 2:50.46 | 2:48.63 | 12796 | 25458 3 | 5:39.34 | 3:33.57 | 25459 | 41490 4 | 9:13.16 | 4:25.68 | 41491 | 61433 5 | 13:39.09 | 3:21.32 | 61434 | 76540 6 | 17:00.41 | 2:01.63 | 76541 | 85678 7 | 19:02.29 | 3:37.49 | 85679 | 102002 8 | 22:40.03 | 1:47.46 | 102003 | 110073 9 | 24:27.49 | 2:44.05 | 110074 | 122378 10 | 27:11.54 | 3:36.40 | 122379 | 138618 11 | 30:48.19 | 3:34.59 | 138619 | 154727 12 | 34:23.03 | 2:22.71 | 154728 | 165448 13 | 36:45.74 | 2:48.55 | 165449 | 178103 14 | 39:34.54 | 3:42.64 | 178104 | 194817 15 | 43:17.43 | 3:04.56 | 194818 | 208673 16 | 46:22.24 | 10:50.39 | 208674 | 257462 17 | 57:12.63 | 2:56.17 | 257463 | 270679

Track 1

Filename C:\EAC Rips\Various - The RZA Presents Afro Samurai Resurection The Soundtrack (2009) [FLAC]\01 Combat (Afro Season II Open Theme) - RZA P. Dot.wav

Pre-gap length 0:00:02.00

Peak level 98.8 % Extraction speed 2.4 X Track quality 99.9 % Test CRC 674B93D8 Copy CRC 674B93D8 Accurately ripped (confidence 2) [1259A286] (AR v1) Copy OK

Track 2

Filename C:\EAC Rips\Various - The RZA Presents Afro Samurai Resurection The Soundtrack (2009) [FLAC]\02 You Already Know - Kool G Rap Inspectah Deck Suga Bang.wav

Pre-gap length 0:00:02.29

Peak level 98.8 % Extraction speed 3.4 X Track quality 100.0 % Test CRC 85DDCC62 Copy CRC 85DDCC62 Accurately ripped (confidence 2) [6B0B0AAD] (AR v1) Copy OK

Track 3

Filename C:\EAC Rips\Various - The RZA Presents Afro Samurai Resurection The Soundtrack (2009) [FLAC]\03 Blood Thicker Than Mud Family Affair - Reverand William Burke Sly Stone Stone Mecca.wav

Pre-gap length 0:00:00.24

Peak level 98.8 % Extraction speed 3.0 X Track quality 99.9 % Test CRC 1E55921C Copy CRC 1E55921C Accurately ripped (confidence 2) [13B2826F] (AR v1) Copy OK

Track 4

Filename C:\EAC Rips\Various - The RZA Presents Afro Samurai Resurection The Soundtrack (2009) [FLAC]\04 Whar - Kool G Rap Ghostface Killah Tash Mahogany RZA.wav

Pre-gap length 0:00:00.81

Peak level 91.5 % Extraction speed 3.5 X Track quality 99.9 % Test CRC 0993FAD0 Copy CRC 0993FAD0 Accurately ripped (confidence 2) [099966F9] (AR v1) Copy OK

Track 5

Filename C:\EAC Rips\Various - The RZA Presents Afro Samurai Resurection The Soundtrack (2009) [FLAC]\05 Girl Samurai Lullaby - Rah Digga Stone Mecca.wav

Pre-gap length 0:00:00.14

Peak level 98.8 % Extraction speed 4.3 X Track quality 100.0 % Test CRC B974B658 Copy CRC B974B658 Accurately ripped (confidence 2) [E3C4871A] (AR v1) Copy OK

Track 6

Filename C:\EAC Rips\Various - The RZA Presents Afro Samurai Resurection The Soundtrack (2009) [FLAC]\06 Fight for You - Thea Van Seijen.wav

Pre-gap length 0:00:00.90

Peak level 98.8 % Extraction speed 2.9 X Track quality 99.9 % Test CRC 66F74E17 Copy CRC 66F74E17 Accurately ripped (confidence 2) [43F1F61D] (AR v1) Copy OK

Track 7

Filename C:\EAC Rips\Various - The RZA Presents Afro Samurai Resurection The Soundtrack (2009) [FLAC]\07 Bitch Gonna Get Ya - Rah Digga.wav

Pre-gap length 0:00:01.62

Peak level 98.8 % Extraction speed 4.8 X Track quality 100.0 % Test CRC 16B69062 Copy CRC 16B69062 Accurately ripped (confidence 2) [18CBC331] (AR v1) Copy OK

Track 8

Filename C:\EAC Rips\Various - The RZA Presents Afro Samurai Resurection The Soundtrack (2009) [FLAC]\08 Bloody Days Bloody Nights - Prodgical Sunn Thea Van Siejen.wav

Pre-gap length 0:00:01.98

Peak level 98.8 % Extraction speed 4.3 X Track quality 100.0 % Test CRC 9E6A44D6 Copy CRC 9E6A44D6 Accurately ripped (confidence 2) [8C82171F] (AR v1) Copy OK

Track 9

Filename C:\EAC Rips\Various - The RZA Presents Afro Samurai Resurection The Soundtrack (2009) [FLAC]\09 Kill Kill Kill - Rugged Monk.wav

Peak level 98.8 % Extraction speed 4.9 X Track quality 100.0 % Test CRC 8C52462E Copy CRC 8C52462E Accurately ripped (confidence 2) [99D562E5] (AR v1) Copy OK

Track 10

Filename C:\EAC Rips\Various - The RZA Presents Afro Samurai Resurection The Soundtrack (2009) [FLAC]\10 Nappy Afro - Boy Jones.wav

Peak level 98.8 % Extraction speed 5.3 X Track quality 100.0 % Test CRC E01A791A Copy CRC E01A791A Accurately ripped (confidence 2) [EEBDC112] (AR v1) Copy OK

Track 11

Filename C:\EAC Rips\Various - The RZA Presents Afro Samurai Resurection The Soundtrack (2009) [FLAC]\11 Bloody Samurai - Black Knights Dexter Wiggles Thea Van Seijen.wav

Peak level 98.8 % Extraction speed 4.3 X Track quality 99.9 % Test CRC CA7D3DA3 Copy CRC CA7D3DA3 Accurately ripped (confidence 2) [F0C15717] (AR v1) Copy OK

Track 12

Filename C:\EAC Rips\Various - The RZA Presents Afro Samurai Resurection The Soundtrack (2009) [FLAC]\12 Dead Birds - Killah Priest Prodgical Sunn Shavo.wav

Peak level 98.8 % Extraction speed 5.2 X Track quality 100.0 % Test CRC 5532C62E Copy CRC 5532C62E Accurately ripped (confidence 2) [47BF13AD] (AR v1) Copy OK

Track 13

Filename C:\EAC Rips\Various - The RZA Presents Afro Samurai Resurection The Soundtrack (2009) [FLAC]\13 Arch Nemesis - Ace Moe Rock.wav

Peak level 98.8 % Extraction speed 5.5 X Track quality 100.0 % Test CRC 8674BF2F Copy CRC 8674BF2F Accurately ripped (confidence 2) [FC53EF5C] (AR v1) Copy OK

Track 14

Filename C:\EAC Rips\Various - The RZA Presents Afro Samurai Resurection The Soundtrack (2009) [FLAC]\14 Brothers Keeper - Reverand William Burke The RZA Infinite.wav

Peak level 98.8 % Extraction speed 5.9 X Track quality 100.0 % Test CRC 2622D574 Copy CRC 2622D574 Accurately ripped (confidence 2) [868699BD] (AR v1) Copy OK

Track 15

Filename C:\EAC Rips\Various - The RZA Presents Afro Samurai Resurection The Soundtrack (2009) [FLAC]\15 Yellow Jackets - Ace Moe Rock.wav

Peak level 100.0 % Extraction speed 6.0 X Track quality 100.0 % Test CRC D55558D4 Copy CRC D55558D4 Accurately ripped (confidence 2) [3CDA535F] (AR v1) Copy OK

Track 16

Filename C:\EAC Rips\Various - The RZA Presents Afro Samurai Resurection The Soundtrack (2009) [FLAC]\16 Take the Sword pt. III - 60 Second Assassin Leggezin Crisi Christ Bearer Rugged Monk Tré Irie Kinetic Reverand William B.wav

Peak level 98.8 % Extraction speed 7.1 X Track quality 100.0 % Test CRC DB2759E4 Copy CRC DB2759E4 Accurately ripped (confidence 2) [76DD9A0E] (AR v1) Copy OK

Track 17

Filename C:\EAC Rips\Various - The RZA Presents Afro Samurai Resurection The Soundtrack (2009) [FLAC]\17 Number One Samurai (Afro Season II Outro) - The RZA 9th Prince.wav

Peak level 98.8 % Extraction speed 6.5 X Track quality 100.0 % Test CRC 23A0203B Copy CRC 23A0203B Accurately ripped (confidence 2) [E09A57D4] (AR v1) Copy OK

All tracks accurately ripped

No errors occurred

End of status report

==== Log checksum ACB0C2D896112ED68E17E18D132DCFC04DCA6ADAFE9DE8EFDE02FF41635797E0 ====
REM GENRE Hip-HopREM DATE 2009REM DISCID DE0E1911REM COMMENT "ExactAudioCopy v1.0b2"PERFORMER "Various"TITLE "The RZA Presents Afro Samurai Resurection The Soundtrack"FILE "01 Combat (Afro Season II Open Theme) - RZA P. Dot.wav" WAVE TRACK 01 AUDIO TITLE "Combat (Afro Season II Open Theme) - RZA P. Dot" PERFORMER "Various" INDEX 01 00:00:00 TRACK 02 AUDIO TITLE "You Already Know - Kool G Rap Inspectah Deck Suga Bang" PERFORMER "Various" INDEX 00 02:48:24FILE "02 You Already Know - Kool G Rap Inspectah Deck Suga Bang.wav" WAVE INDEX 01 00:00:00 TRACK 03 AUDIO TITLE "Blood Thicker Than Mud Family Affair - Reverand William Burke Sly Stone Stone..." PERFORMER "Various" INDEX 00 02:48:45FILE "03 Blood Thicker Than Mud Family Affair - Reverand William Burke Sly Stone Stone Mecca.wav" WAVE INDEX 01 00:00:00 TRACK 04 AUDIO TITLE "Whar - Kool G Rap Ghostface Killah Tash Mahogany RZA" PERFORMER "Various" INDEX 00 03:32:71FILE "04 Whar - Kool G Rap Ghostface Killah Tash Mahogany RZA.wav" WAVE INDEX 01 00:00:00 TRACK 05 AUDIO TITLE "Girl Samurai Lullaby - Rah Digga Stone Mecca" PERFORMER "Various" INDEX 00 04:25:57FILE "05 Girl Samurai Lullaby - Rah Digga Stone Mecca.wav" WAVE INDEX 01 00:00:00 TRACK 06 AUDIO TITLE "Fight for You - Thea Van Seijen" PERFORMER "Various" INDEX 00 03:20:39FILE "06 Fight for You - Thea Van Seijen.wav" WAVE INDEX 01 00:00:00 TRACK 07 AUDIO TITLE "Bitch Gonna Get Ya - Rah Digga" PERFORMER "Various" INDEX 00 02:00:16FILE "07 Bitch Gonna Get Ya - Rah Digga.wav" WAVE INDEX 01 00:00:00 TRACK 08 AUDIO TITLE "Bloody Days Bloody Nights - Prodgical Sunn Thea Van Siejen" PERFORMER "Various" INDEX 00 03:35:50FILE "08 Bloody Days Bloody Nights - Prodgical Sunn Thea Van Siejen.wav" WAVE INDEX 01 00:00:00FILE "09 Kill Kill Kill - Rugged Monk.wav" WAVE TRACK 09 AUDIO TITLE "Kill Kill Kill - Rugged Monk" PERFORMER "Various" INDEX 01 00:00:00FILE "10 Nappy Afro - Boy Jones.wav" WAVE TRACK 10 AUDIO TITLE "Nappy Afro - Boy Jones" PERFORMER "Various" INDEX 01 00:00:00FILE "11 Bloody Samurai - Black Knights Dexter Wiggles Thea Van Seijen.wav" WAVE TRACK 11 AUDIO TITLE "Bloody Samurai - Black Knights Dexter Wiggles Thea Van Seijen" PERFORMER "Various" INDEX 01 00:00:00FILE "12 Dead Birds - Killah Priest Prodgical Sunn Shavo.wav" WAVE TRACK 12 AUDIO TITLE "Dead Birds - Killah Priest Prodgical Sunn Shavo" PERFORMER "Various" INDEX 01 00:00:00FILE "13 Arch Nemesis - Ace Moe Rock.wav" WAVE TRACK 13 AUDIO TITLE "Arch Nemesis - Ace Moe Rock" PERFORMER "Various" INDEX 01 00:00:00FILE "14 Brothers Keeper - Reverand William Burke The RZA Infinite.wav" WAVE TRACK 14 AUDIO TITLE "Brothers Keeper - Reverand William Burke The RZA Infinite" PERFORMER "Various" INDEX 01 00:00:00FILE "15 Yellow Jackets - Ace Moe Rock.wav" WAVE TRACK 15 AUDIO TITLE "Yellow Jackets - Ace Moe Rock" PERFORMER "Various" INDEX 01 00:00:00FILE "16 Take the Sword pt. III - 60 Second Assassin Leggezin Crisi Christ Bearer Rugged Monk Trй Irie Kinetic Reverand William B.wav" WAVE TRACK 16 AUDIO TITLE "Take the Sword pt. III - 60 Second Assassin Leggezin Crisi Christ Bearer Rugg..." PERFORMER "Various" INDEX 01 00:00:00FILE "17 Number One Samurai (Afro Season II Outro) - The RZA 9th Prince.wav" WAVE TRACK 17 AUDIO TITLE "Number One Samurai (Afro Season II Outro) - The RZA 9th Prince" PERFORMER "Various" INDEX 01 00:00:00
AUDIOCHECKER v2.0 beta (build 457) - by Dester - [email protected]
~~~~~~~~~~~~~~~~~~~~~~~~~~~~~~~~~~
-=== DO NOT EDIT THIS FILE! ===-

Path: ...\Various Artists - 2009 - Afro Samurai Resurrection [FLAC]

01 -=- 01 - Combat (Afro Season II Open Theme).flac -=- CDDA (100%)
02 -=- 02 - You Already Know.flac -=- CDDA (100%)
03 -=- 03 - Blood Thicker Than Mud (Family Affair).flac -=- CDDA (100%)
04 -=- 04 - Whar.flac -=- CDDA (100%)
05 -=- 05 - Girl Samurai Lullaby.flac -=- CDDA (100%)
06 -=- 06 - Fight For You.flac -=- CDDA (99%)
07 -=- 07 - Bitch Gonna Get Ya.flac -=- CDDA (100%)
08 -=- 08 - Bloody Days Bloody Nights.flac -=- CDDA (100%)
09 -=- 09 - Kill Kill Kill.flac -=- CDDA (99%)
10 -=- 10 - Nappy Afro.flac -=- CDDA (100%)
11 -=- 11 - Bloody Samurai.flac -=- CDDA (100%)
12 -=- 12 - Dead Birds.flac -=- CDDA (100%)
13 -=- 13 - Arch Nemesis.flac -=- CDDA (100%)
14 -=- 14 - Brother's Keeper.flac -=- CDDA (100%)
15 -=- 15 - Yellow Jackets.flac -=- MPEG (95%)
16 -=- 16 - Take The Sword Part III.flac -=- CDDA (100%)
17 -=- 17 - Number One Samurai (Afro Season II Outro).flac -=- CDDA (100%)

Summary 94,29% CDDA

20803588
15 - Yellow Jackets


Трекер:  [ 29-Дек-2015 02:30 ]

  

Скачать .torrent

Размер .torrent файла 17 KB


Размер: 400 MB
Хэш (hash) релиза: 8cc52dc8d866f52bd4a3cb6bbadedc4171b2a976

Еще никто не оставлял запись к записи скачать торрент Афросамурай: Воскрешение Afro Samurai: Resurrection . Будь первым!

!Обратная связь