FLCL / Furi Kuri | Makai Ouji: Devils and Realist | Tarm Ruk Keun Jai

Скачать через торрент [VIDEO] Хитмэн: Агент 47 Hitman: Agent 47 бесплатно русская версия torrent активатор

Статистика раздачи
Размер:  1.77 GB   |    Зарегистрирован:  2 года 6 месяцев   |    .torrent скачан:  73 раза   |   
Раздают:  1  
   
загрузка...
 
Автор Сообщение

Galfimbul

avatar Galfimbul


Хитмэн: Агент 47 / Hitman: Agent 47

Год выпуска: 2015
Оригинальное название: Hitman: Agent 47
Страна: США, Германия, Сингапур
Жанр: боевик, фантастика, триллер
Возраст: 16+

Режиссер: Александр Бах

В ролях: Руперт Френд, Ханна Уэр, Закари Куинто, Анджела Бейби, Томас Кречман, Дэн Баккедаль, Шарлин Бек, Михаэль Борнхюттер, Мелисса Бротон, Нильс Брункхорст, Михаэлла Каспар, Элвин Чан, Майкл Коркоран, Мануэль Депта, Эндрю Ди Бартоломео, Георг Эбиналь, Йорг Эллмер, Вайе Леон Го, Маттиас Гюнтер, Джесси Хергт, Киаран Хайндс, Джерри Хоффманн, Флориан Хотц

Описание: История об элитном убийце, созданном при помощи генной инженерии, который объединяется с женщиной, чтобы помочь ей найти отца и раскрыть тайну своего происхождения.

Продолжительность: 01:36:16
Перевод: Дублированный [Лицензия]
Оригинальная дорожка: нет

Автор рипа:

Качество видео: BDRip Исходник: Blu-Ray Remux (1080p) Формат: mp4
Видео кодек: MPEG-4 AVC Аудио кодек: AAC
Видео: 1280x536 at 23.976 fps, AVC at 2 500 kbps avg, 0.152 bit/pixel
Аудио №1 Rus: 48.0 KHz, AAC, 2 ch, CBR, 128.0 Kbps
Субтитры: нет
Навигация по главам: Нет
GeneralComplete name : E:\Xitmen_agent_47.2015_KinoGadget.mp4Format : MPEG-4Format profile : Base MediaCodec ID : isomFile size : 1.77 GiBDuration : 1h 36mnOverall bit rate mode : VariableOverall bit rate : 2 628 KbpsMovie name : Хитмэн_Агент 47Performer : Александр БахGenre : Crime, ThrillerContentType : Short FilmRecorded date : 2015Encoded date : UTC 2015-12-28 12:38:31Tagged date : UTC 2015-12-28 12:43:30Cover : YesContentRating : mpaa|R|400|

LongDescription : История об элитном убийце, созданном при помощи генной инженерии, который объединяется с женщиной, чтобы помочь ей найти отца и раскрыть тайну своего происхождения.HDVideo : Yes

VideoID : 1Format : AVCFormat/Info : Advanced Video CodecFormat profile : [email protected] settings, CABAC : YesFormat settings, ReFrames : 11 framesCodec ID : avc1Codec ID/Info : Advanced Video CodingDuration : 1h 36mnBit rate : 2 500 KbpsMaximum bit rate : 13.6 MbpsWidth : 1 280 pixelsHeight : 536 pixelsDisplay aspect ratio : 2.40:1Frame rate mode : ConstantFrame rate : 23.976 fpsColor space : YUVChroma subsampling : 4:2:0Bit depth : 8 bitsScan type : ProgressiveBits/(Pixel*Frame) : 0.152Stream size : 1.68 GiB (95%)Writing library : x264 core 146 r2538 121396cEncoding settings : cabac=1 / ref=11 / deblock=1:-1:-1 / analyse=0x3:0x133 / me=umh / subme=9 / psy=1 / psy_rd=1.00:0.00 / mixed_ref=1 / me_range=32 / chroma_me=1 / trellis=2 / 8x8dct=1 / cqm=0 / deadzone=21,11 / fast_pskip=1 / chroma_qp_offset=-2 / threads=3 / lookahead_threads=1 / sliced_threads=0 / nr=0 / decimate=1 / interlaced=0 / bluray_compat=0 / constrained_intra=0 / bframes=8 / b_pyramid=2 / b_adapt=2 / b_bias=0 / direct=3 / weightb=1 / open_gop=0 / weightp=2 / keyint=240 / keyint_min=23 / scenecut=40 / intra_refresh=0 / rc_lookahead=60 / rc=2pass / mbtree=1 / bitrate=2500 / ratetol=1.0 / qcomp=0.60 / qpmin=0 / qpmax=69 / qpstep=4 / cplxblur=20.0 / qblur=0.5 / ip_ratio=1.40 / aq=1:1.00Language : EnglishEncoded date : UTC 2015-12-28 12:26:06Tagged date : UTC 2015-12-28 12:39:57

AudioID : 2Format : AACFormat/Info : Advanced Audio CodecFormat profile : LCCodec ID : 40Duration : 1h 36mnBit rate mode : VariableBit rate : 128 KbpsMaximum bit rate : 135 KbpsChannel count : 2 channelsChannel positions : Front: L RSampling rate : 48.0 KHzCompression mode : LossyStream size : 88.1 MiB (5%)Language : RussianEncoded date : UTC 2015-12-28 12:27:03Tagged date : UTC 2015-12-28 12:39:57
[url=...39840292] [/url]

Трекер:  [ 28-Дек-2015 15:00 ]

  

Скачать .torrent

Размер .torrent файла 18 KB


Размер: 1.77 GB
Хэш (hash) релиза: 18702aa74398a24bb4910fe0c79a517fe3bcdb41

Еще никто не оставлял запись к записи скачать торрент [VIDEO] Хитмэн: Агент 47 Hitman: Agent 47 . Будь первым!

!Обратная связь