Lãng mạn | Manhunt: Unabomber | Филип Пиньотти

Скачать через торрент [VIDEO] Бегущий в лабиринте: Испытание огнём Maze Runner: The Scorch Trials бесплатно русская версия torrent активатор

Статистика раздачи
Размер:  2.42 GB   |    Зарегистрирован:  2 года 6 месяцев   |    .torrent скачан:  81 раз   |   
Раздают:  1  
   
загрузка...
 
Автор Сообщение

Galfimbul

avatar Galfimbul


Бегущий в лабиринте: Испытание огнём / Maze Runner: The Scorch Trials«Лабиринт был всего лишь началом»
Год выпуска: 2015
Оригинальное название: Maze Runner: The Scorch Trials
Страна: США
Жанр: фантастика, боевик, триллер
Возраст: 16+

Режиссер: Уэс Болл

В ролях: Дилан О`Брайэн, Ки Хонг Ли, Кая Скоделарио, Томас Броди Сэнгстер, Декстер Дарден, Алекс Дж. Флорес, Джейкоб Лофленд, Роза Салазар, Джанкарло Эспозито, Патришия Кларксон, Эйден Гиллен, Терри Паркс, Кэтрин Смит МакГлинн, Лили Тейлор, Бэрри Пеппер, Дж. Нэйтан Симмонс, Мэттью Т. Мецлер, Алан Тьюдик, Дженни Гэбриэлль, Дэвид Хаус

Описание: Лабиринт пройден, но Томасу, Терезе, Минхо и прочим глэйдерам не приходится расслабляться. Таинственное руководство ПОРОКА — секретной организации, устроившей гонки на выживание — назначает ребятам новые, смертельно опасные испытания. На сей раз их ждет переход по раскаленной пустыне и встреча с жертвами неизлечимой болезни, которые отличаются буйным нравом и непредсказуемым поведением.

Продолжительность: 02:11:42
Перевод: Дублированный [Лицензия]
Оригинальная дорожка: нет

Автор рипа:

Качество видео: BDRip Исходник: Blu-Ray Remux (1080p) Формат: mp4
Видео кодек: MPEG-4 AVC Аудио кодек: AAC
Видео: 1280x536 at 23.976 fps, AVC at 2 500 kbps avg, 0.152 bit/pixel
Аудио №1 Rus: 48.0 KHz, AAC, 2 ch, CBR, 128.0 Kbps
Субтитры: нет
Навигация по главам: нет
GeneralComplete name : D:\VideoRip\Begushhij_v_labirinte_ispytanie_ognyom_2015_KinoGadget.mp4Format : MPEG-4Format profile : Base MediaCodec ID : isomFile size : 2.42 GiBDuration : 2h 11mnOverall bit rate mode : VariableOverall bit rate : 2 631 KbpsMovie name : Бегущий в лабиринте: Испытание огнёмPerformer : Уэс БоллGenre : Action, ThrillerContentType : Short FilmRecorded date : 2015Encoded date : UTC 2015-12-27 14:58:09Tagged date : UTC 2015-12-27 15:09:34Cover : YesContentRating : mpaa|PG-13|300|

LongDescription : Лабиринт пройден, но Томасу, Терезе, Минхо и прочим глэйдерам не приходится расслабляться. Таинственное руководство ПОРОКА — секретной организации, устроившей гонки на выживание — назначает ребятам новые, смертельно опасные испытания. На сей раз их ждет переход по раскаленной пустыне и встреча с жертвами неизлечимой болезни, которые отличаются буйным нравом и непредсказуемым поведением.HDVideo : Yes

VideoID : 1Format : AVCFormat/Info : Advanced Video CodecFormat profile : [email protected] settings, CABAC : YesFormat settings, ReFrames : 11 framesCodec ID : avc1Codec ID/Info : Advanced Video CodingDuration : 2h 11mnBit rate : 2 500 KbpsMaximum bit rate : 16.4 MbpsWidth : 1 280 pixelsHeight : 536 pixelsDisplay aspect ratio : 2.40:1Frame rate mode : ConstantFrame rate : 23.976 fpsColor space : YUVChroma subsampling : 4:2:0Bit depth : 8 bitsScan type : ProgressiveBits/(Pixel*Frame) : 0.152Stream size : 2.30 GiB (95%)Writing library : x264 core 148 r2638 7599210Encoding settings : cabac=1 / ref=11 / deblock=1:-1:-1 / analyse=0x3:0x133 / me=umh / subme=9 / psy=1 / psy_rd=1.00:0.00 / mixed_ref=1 / me_range=32 / chroma_me=1 / trellis=2 / 8x8dct=1 / cqm=0 / deadzone=21,11 / fast_pskip=1 / chroma_qp_offset=-2 / threads=3 / lookahead_threads=1 / sliced_threads=0 / nr=0 / decimate=1 / interlaced=0 / bluray_compat=0 / constrained_intra=0 / bframes=8 / b_pyramid=2 / b_adapt=2 / b_bias=0 / direct=3 / weightb=1 / open_gop=0 / weightp=2 / keyint=240 / keyint_min=23 / scenecut=40 / intra_refresh=0 / rc_lookahead=60 / rc=2pass / mbtree=1 / bitrate=2500 / ratetol=1.0 / qcomp=0.60 / qpmin=0 / qpmax=69 / qpstep=4 / cplxblur=20.0 / qblur=0.5 / ip_ratio=1.40 / aq=1:1.00Language : EnglishEncoded date : UTC 2015-12-27 14:47:48Tagged date : UTC 2015-12-27 15:01:42

AudioID : 2Format : AACFormat/Info : Advanced Audio CodecFormat profile : LCCodec ID : 40Duration : 2h 11mnBit rate mode : VariableBit rate : 128 KbpsMaximum bit rate : 135 KbpsChannel count : 2 channelsChannel positions : Front: L RSampling rate : 48.0 KHzCompression mode : LossyStream size : 121 MiB (5%)Language : RussianEncoded date : UTC 2015-12-27 14:49:36Tagged date : UTC 2015-12-27 15:01:42
[url=...39840292] [/url]

Трекер:  [ 27-Дек-2015 17:00 ]

  

Скачать .torrent

Размер .torrent файла 12 KB


Размер: 2.42 GB
Хэш (hash) релиза: de904368a601d2223da23eb9cb2fe336af8bf4da

Еще никто не оставлял запись к записи скачать торрент [VIDEO] Бегущий в лабиринте: Испытание огнём Maze Runner: The Scorch Trials . Будь первым!

!Обратная связь