Julia Roberts | 너의의미, | An evaluation of the advantages and disadvantages of deterministic ...

Скачать через торрент [VIDEO] Выхода нет No Escape бесплатно русская версия torrent активатор

Статистика раздачи
Размер:  1.9 GB   |    Зарегистрирован:  2 года 6 месяцев   |    .torrent скачан:  36 раз   |   
Раздают:  1  
   
загрузка...
 
Автор Сообщение

Galfimbul

avatar Galfimbul


Выхода нет / No Escape«Как далеко ты зайдёшь, чтобы защитить тех, кого любишь»
Год выпуска: 2015
Оригинальное название: No Escape
Страна: США
Жанр: боевик, триллер
Возраст: 18+

Режиссер: Джон Эрик Даудл

В ролях: Оуэн Уилсон, Лэйк Белл, Пирс Броснан, Стерлинг Джеринс, Чатчаваи Камонсакпитак, Сахайак Бунсанакит, Танапол Чуксрида, Нопханд Буньяй, Канарпат Финтиянг, Джон Голдни, Дуанг Мэйдорк, Супхорнапхат Энни Дженселиус, Бартелеми Сон, Микайла Френд, Стэйси Чбоски, Байрон Гибсон, Мэтт Олиник, Стефан Кинг, Тханават Каеваркорн, Спенсер Гаррет

Описание: Семья техасского инженера Джека Двайера прилетает в неназванную азиатскую страну. Главу семейства ожидает работа в солидной инжиниринговой корпорации, новая карьера и заманчивые перспективы. Но переехавшая в поисках лучшей жизни на другой край света американская семья оказывается в огне охватившего страну военного переворота. Как далеко сможет зайти загнанный в угол человек, чтобы спасти жену и детей от вооруженных радикалов, объявивших охоту на непрошенных гостей-иностранцев?

Продолжительность: 01:43:10
Перевод: Дублированный
Оригинальная дорожка: нет

Автор рипа:

Качество видео: BDRip Исходник: Blu-Ray Remux (1080p) Формат: mp4
Видео кодек: MPEG-4 AVC Аудио кодек: AAC
Видео: 1280x688 at 23.976 fps, AVC at 2 500 kbps avg, 0.118 bit/pixel
Аудио №1 Rus: 48.0 KHz, AAC, 2 ch, CBR, 128.0 Kbps
Субтитры: нет
Навигация по главам: нет
GeneralComplete name : E:\Vyxoda_net.2015_KinoGadget.mp4Format : MPEG-4Format profile : Base MediaCodec ID : isomFile size : 1.90 GiBDuration : 1h 43mnOverall bit rate mode : VariableOverall bit rate : 2 634 KbpsMovie name : Выхода нетPerformer : Джон Эрик ДаудлGenre : Action, ThrillerContentType : Short FilmRecorded date : 2015Encoded date : UTC 2015-12-27 15:20:00Tagged date : UTC 2015-12-27 15:35:27Cover : YesContentRating : mpaa|R|400|

LongDescription : Американец вместе со своей семьей переезжает в Юго-Восточную Азию, но мирно пожить там не удается: вокруг разгорается жестокий военный переворот.HDVideo : Yes

VideoID : 1Format : AVCFormat/Info : Advanced Video CodecFormat profile : [email protected] settings, CABAC : YesFormat settings, ReFrames : 9 framesCodec ID : avc1Codec ID/Info : Advanced Video CodingDuration : 1h 43mnBit rate : 2 500 KbpsMaximum bit rate : 12.7 MbpsWidth : 1 280 pixelsHeight : 688 pixelsDisplay aspect ratio : 1.85:1Frame rate mode : ConstantFrame rate : 23.976 fpsColor space : YUVChroma subsampling : 4:2:0Bit depth : 8 bitsScan type : ProgressiveBits/(Pixel*Frame) : 0.118Stream size : 1.80 GiB (95%)Writing library : x264 core 146 r2538 121396cEncoding settings : cabac=1 / ref=9 / deblock=1:-1:-1 / analyse=0x3:0x133 / me=umh / subme=9 / psy=1 / psy_rd=1.00:0.00 / mixed_ref=1 / me_range=32 / chroma_me=1 / trellis=2 / 8x8dct=1 / cqm=0 / deadzone=21,11 / fast_pskip=1 / chroma_qp_offset=-2 / threads=3 / lookahead_threads=1 / sliced_threads=0 / nr=0 / decimate=1 / interlaced=0 / bluray_compat=0 / constrained_intra=0 / bframes=8 / b_pyramid=2 / b_adapt=2 / b_bias=0 / direct=3 / weightb=1 / open_gop=0 / weightp=2 / keyint=240 / keyint_min=23 / scenecut=40 / intra_refresh=0 / rc_lookahead=60 / rc=2pass / mbtree=1 / bitrate=2500 / ratetol=1.0 / qcomp=0.60 / qpmin=0 / qpmax=69 / qpstep=4 / cplxblur=20.0 / qblur=0.5 / ip_ratio=1.40 / aq=1:1.00Language : EnglishEncoded date : UTC 2015-12-27 15:02:39Tagged date : UTC 2015-12-27 15:21:37

AudioID : 2Format : AACFormat/Info : Advanced Audio CodecFormat profile : LCCodec ID : 40Duration : 1h 43mnBit rate mode : VariableBit rate : 128 KbpsMaximum bit rate : 134 KbpsChannel count : 2 channelsChannel positions : Front: L RSampling rate : 48.0 KHzCompression mode : LossyStream size : 94.5 MiB (5%)Language : RussianEncoded date : UTC 2015-12-27 15:12:37Tagged date : UTC 2015-12-27 15:21:37
[url=...39840292] [/url]

Трекер:  [ 27-Дек-2015 17:00 ]

  

Скачать .torrent

Размер .torrent файла 19 KB


Размер: 1.9 GB
Хэш (hash) релиза: eef4f0f0d5e7e43baf9678d4c36f8c76424fd074

Еще никто не оставлял запись к записи скачать торрент [VIDEO] Выхода нет No Escape . Будь первым!

!Обратная связь