Start Date
Electro Punk

Скачать через торрент [VIDEO] Бродяга Кэнсин бесплатно русская версия torrent активатор

Статистика раздачи
Размер:  2.01 GB   |    Зарегистрирован:  2 года 3 месяца   |    .torrent скачан:  18 раз   |   
Раздают:  1  
   
загрузка...
 
Автор Сообщение

Galfimbul

avatar Galfimbul



Бродяга Кэнсин (Кеншин) / Rurouni Kenshin: Meiji Kenkaku Roman Tan (Romantan) / Samurai X

Год выпуска: 2012
Страна: Япония
Жанр: боевик, драма, история
Продолжительность: 2:14:26
Перевод №1: [Русский] Любительский (Многоголосый, закадровый) AniFilm (MVO)
Перевод №2: [Русский] Любительский (Двухголосый, закадровый) AniDUB & Batafurai Team (DVO)
Оригинальная аудиодорожка: [Японский] Есть
Cубтитры: Русские, в контейнере, отключаемые (softsub)
Cубтитры №1: Бакумацу-инфо (версия с "ась" и "вот так вот")
Cубтитры №2: Бакумацу-инфо ("вежливая" версия)
Cубтитры №3: Альянс
Cубтитры №4: Синхито
Режиссер: Кейдзи Отомо / Keishi Ohtomo
В ролях: Такеру Сато / Takeru Sato (Kenshin Himura), Эми Такеи / Emi Takei (Kaoru Kamiya), Теруюки Кагава / Teruyuki Kagawa (Kanryu Takeda), Ю Аои / Yu Aoi (Megumi Takani), Йосукэ Эгути / Yosuke Eguchi (Hajime Saito), Мунэтака Аоки / Munetaka Aoki (Sanosuke Sagara), Кёдзи Киккава / Koji Kikkawa (Udo Jine), Такэто Танака / Taketo Tanaka (Yahiko Myojin) и другие .
Описание: Бывший легендарный убийца Кэнсин Химура стал скитальцем самураем, предлагающим помощь и защиту нуждающимся, чтобы искупить свои прошлые поступки. Во время своих скитаний Кэнсин столкнется с Каору Камией. Ее отец открыл школу кэндо в Токио и Каору работает там инструктором. Отношения Кэнсина и Каору начинают развиваться, но Кэнсина по-прежнему преследует его ужасное прошлое…
Релиз группы
Качество:HDRip / [url=...4644784]рип с BDRip 720p[/url] Формат: MP4
Видео кодек: H.264 Аудио кодек: AAC Видео: 960x404 AR: 2.40 1740 kbps 23.976 fps
Аудио №1: [Russian] 2ch 48 kHz 128 kbps AniFilm (MVO)
Аудио №2: [Russian] 2ch 48 kHz 128 kbps AniDUB & Batafurai Team (DVO)
Аудио №3: [Japanese] 2ch 48 kHz 128 kbps (Original)

Фильм снят по популярной манге «Rurouni Kenshin», написанной и нарисованной Нобухиро Вацуки, которая печаталась в Weekly Shonen Jump со 2-го сентября 1994 по 4-ое ноября 1999 года.

...last pass...

x264.exe: --pass 2 --bitrate 1740 --preset medium --profile high --level 4.1 --ref 5 --aq-strength 0.7 --merange 32 --bframes 9 --direct auto --b-adapt 2 --trellis 2 --no-fast-pskip --no-dct-decimate --psy-rd 0.80:0.00 --subme 11 --me umh --colorprim bt709 --transfer bt709 --colormatrix bt709 --sar 1:1 --stats "D:\Rurouni.Kenshin.2012.720P.BluRay.x264.DTS.AC3-HDWinG.log" --output "D:\Rurouni.Kenshin.2012.720P.BluRay.x264.DTS.AC3-HDWinG.mp4" "D:\XVID4PSP 5\Temp\0281.avs"

avs [info]: 960x404p 1:1 @ 2997/125 fps (cfr)
x264 [info]: using SAR=1/1
x264 [info]: using cpu capabilities: MMX2 SSE2Fast SSSE3 SSE4.2 LZCNT
x264 [info]: profile High, level 4.1

x264 [info]: frame I:1524 Avg QP:15.05 size: 70267
x264 [info]: frame P:48764 Avg QP:18.87 size: 19730
x264 [info]: frame B:143104 Avg QP:22.43 size: 4785
x264 [info]: consecutive B-frames: 4.2% 4.9% 11.5% 24.0% 16.4% 30.9% 4.3% 2.2% 1.0% 0.4%
x264 [info]: mb I I16..4: 7.5% 62.2% 30.4%
x264 [info]: mb P I16..4: 1.7% 12.3% 3.0% P16..4: 33.0% 33.4% 10.5% 0.0% 0.0% skip: 6.2%
x264 [info]: mb B I16..4: 0.2% 1.7% 0.5% B16..8: 34.1% 15.4% 2.3% direct: 3.6% skip:42.2% L0:40.4% L1:46.9% BI:12.6%
x264 [info]: 8x8 transform intra:70.8% inter:61.9%
x264 [info]: direct mvs spatial:97.4% temporal:2.6%
x264 [info]: coded y,uvDC,uvAC intra: 79.7% 79.4% 46.1% inter: 20.4% 16.8% 7.2%
x264 [info]: i16 v,h,dc,p: 22% 11% 5% 62%
x264 [info]: i8 v,h,dc,ddl,ddr,vr,hd,vl,hu: 13% 7% 4% 9% 14% 14% 13% 13% 13%
x264 [info]: i4 v,h,dc,ddl,ddr,vr,hd,vl,hu: 32% 6% 6% 7% 11% 11% 10% 8% 9%
x264 [info]: i8c dc,h,v,p: 32% 27% 23% 18%
x264 [info]: Weighted P-Frames: Y:4.2% UV:2.1%
x264 [info]: ref P L0: 57.7% 13.3% 15.4% 7.4% 5.2% 1.0% 0.0%
x264 [info]: ref B L0: 83.9% 11.3% 3.7% 1.1%
x264 [info]: ref B L1: 92.3% 7.7%
x264 [info]: kb/s:1739.61

x264 [total]: encoded 193392 frames, 7.81 fps, 1739.61 kb/s
ОбщееПолное имя : D:\Torrents\Rurouni Kenshin.2012.HDRip.x264.960x.rip by Frost O.S.mp4Формат : MPEG-4Профиль формата : Base MediaИдентификатор кодека : isomРазмер файла : 2,01 ГбайтПродолжительность : 2 ч. 14 м.Режим общего битрейта : ПеременныйОбщий поток : 2139 Кбит/секНазвание фильма : Rurouni Kenshin 2012 HDRip x264 960x rip by Frost O SЖанр : ActionТип содержимого : Short FilmДата кодирования : UTC 2015-12-27 09:11:03Дата пометки : UTC 2015-12-27 09:14:01Программа кодирования : MkvToMp4 version: 0.224 (x64)Обложка : YesПримечание : rip by Frost O.SLongDescription : Бывший легендарный убийца Кэнсин Химура стал скитальцем самураем, предлагающим помощь и защиту нуждающимся, чтобы искупить свои прошлые поступки. Во время своих скитаний Кэнсин столкнется с Каору Камией. Ее отец открыл школу кэндо в Токио и Каору работает там инструктором. Отношения Кэнсина и Каору начинают развиваться, но Кэнсина по-прежнему преследует его ужасное прошлое…

ВидеоИдентификатор : 1Формат : AVCФормат/Информация : Advanced Video CodecПрофиль формата : [email protected]Параметр CABAC формата : ДаПараметр ReFrames формата : 5 кадровИдентификатор кодека : avc1Идентификатор кодека/Информация : Advanced Video CodingПродолжительность : 2 ч. 14 м.Битрейт : 1740 Кбит/секМаксимальный битрейт : 10,5 Мбит/секШирина : 960 пикселейВысота : 404 пикселяСоотношение сторон : 2,40:1Режим частоты кадров : ПостоянныйЧастота кадров : 23,976 кадра/секЦветовое пространство : YUVСубдискретизация насыщенности : 4:2:0Битовая глубина : 8 битТип развёртки : ПрогрессивнаяБит/(Пиксели*Кадры) : 0.187Размер потока : 1,63 Гбайт (81%)Библиотека кодирования : x264 core 130 r2273 b3065e6Настройки программы : cabac=1 / ref=5 / deblock=1:0:0 / analyse=0x3:0x113 / me=umh / subme=11 / psy=1 / psy_rd=0.80:0.00 / mixed_ref=1 / me_range=32 / chroma_me=1 / trellis=2 / 8x8dct=1 / cqm=0 / deadzone=21,11 / fast_pskip=0 / chroma_qp_offset=-2 / threads=3 / lookahead_threads=1 / sliced_threads=0 / nr=0 / decimate=0 / interlaced=0 / bluray_compat=0 / constrained_intra=0 / bframes=9 / b_pyramid=2 / b_adapt=2 / b_bias=0 / direct=3 / weightb=1 / open_gop=0 / weightp=2 / keyint=250 / keyint_min=23 / scenecut=40 / intra_refresh=0 / rc_lookahead=40 / rc=2pass / mbtree=1 / bitrate=1740 / ratetol=1.0 / qcomp=0.60 / qpmin=0 / qpmax=69 / qpstep=4 / cplxblur=20.0 / qblur=0.5 / ip_ratio=1.40 / aq=1:0.70Язык : EnglishДата кодирования : UTC 2015-12-27 09:11:03Дата пометки : UTC 2015-12-27 09:11:39Цветовой диапазон : LimitedОсновные цвета : BT.709Характеристики трансфера : BT.709Коэффициенты матрицы : BT.709

Аудио #1Идентификатор : 2Формат : AACФормат/Информация : Advanced Audio CodecПрофиль формата : LCИдентификатор кодека : 40Продолжительность : 2 ч. 14 м.Вид битрейта : ПеременныйБитрейт : 128 Кбит/секМаксимальный битрейт : 135 Кбит/секКаналы : 2 каналаРасположение каналов : Front: L RЧастота : 48,0 КГцМетод сжатия : С потерямиРазмер потока : 123 Мбайт (6%)Заголовок : AniFilm _MVO_ / AniFilm _MVO_Язык : RussianДата кодирования : UTC 2015-12-27 09:11:29Дата пометки : UTC 2015-12-27 09:11:39

Аудио #2Идентификатор : 3Формат : AACФормат/Информация : Advanced Audio CodecПрофиль формата : LCИдентификатор кодека : 40Продолжительность : 2 ч. 14 м.Вид битрейта : ПеременныйБитрейт : 128 Кбит/секМаксимальный битрейт : 135 Кбит/секКаналы : 2 каналаРасположение каналов : Front: L RЧастота : 48,0 КГцМетод сжатия : С потерямиРазмер потока : 123 Мбайт (6%)Заголовок : AniDUB _ Batafurai Team _DVO_ / AniDUB _ Batafurai Team _DVO_Язык : RussianДата кодирования : UTC 2015-12-27 09:11:32Дата пометки : UTC 2015-12-27 09:11:39

Аудио #3Идентификатор : 4Формат : AACФормат/Информация : Advanced Audio CodecПрофиль формата : LCИдентификатор кодека : 40Продолжительность : 2 ч. 14 м.Вид битрейта : ПеременныйБитрейт : 128 Кбит/секМаксимальный битрейт : 135 Кбит/секКаналы : 2 каналаРасположение каналов : Front: L RЧастота : 48,0 КГцМетод сжатия : С потерямиРазмер потока : 123 Мбайт (6%)Заголовок : _Original_ / _Original_Язык : JapaneseДата кодирования : UTC 2015-12-27 09:11:34Дата пометки : UTC 2015-12-27 09:11:39

Текст #1Идентификатор : 5Формат : Timed TextРежим смешивания : sbtlИдентификатор кодека : tx3gПродолжительность : 2 ч. 9 м.Вид битрейта : ПеременныйБитрейт : 48 бит/секРазмер потока : 45,1 Кбайт (0%)Заголовок : Bakumatsu_Info v.1 / Bakumatsu_Info v.1Язык : RussianДата кодирования : UTC 2015-12-27 09:11:38Дата пометки : UTC 2015-12-27 09:11:39

Текст #2Идентификатор : 6Формат : Timed TextРежим смешивания : sbtlИдентификатор кодека : tx3gПродолжительность : 2 ч. 9 м.Вид битрейта : ПеременныйБитрейт : 48 бит/секРазмер потока : 45,6 Кбайт (0%)Заголовок : Bakumatsu_info v.2 / Bakumatsu_info v.2Язык : RussianДата кодирования : UTC 2015-12-27 09:11:38Дата пометки : UTC 2015-12-27 09:11:39

Текст #3Идентификатор : 7Формат : Timed TextРежим смешивания : sbtlИдентификатор кодека : tx3gПродолжительность : 2 ч. 9 м.Вид битрейта : ПеременныйБитрейт : 49 бит/секРазмер потока : 46,2 Кбайт (0%)Заголовок : Alyans / AlyansЯзык : RussianДата кодирования : UTC 2015-12-27 09:11:38Дата пометки : UTC 2015-12-27 09:11:39

Текст #4Идентификатор : 8Формат : Timed TextРежим смешивания : sbtlИдентификатор кодека : tx3gПродолжительность : 2 ч. 9 м.Вид битрейта : ПеременныйБитрейт : 50 бит/секРазмер потока : 47,7 Кбайт (0%)Заголовок : Sinhito / SinhitoЯзык : RussianДата кодирования : UTC 2015-12-27 09:11:38Дата пометки : UTC 2015-12-27 09:11:39


Трекер:  [ 27-Дек-2015 16:00 ]

  

Скачать .torrent

Размер .torrent файла 10 KB


Размер: 2.01 GB
Хэш (hash) релиза: a2af9e11b32b30fe28b25d3323561c33d3181548

Еще никто не оставлял запись к записи скачать торрент [VIDEO] Бродяга Кэнсин . Будь первым!

!Обратная связь