Top IMDb | Macross Frontier | Chapter 660

Скачать через торрент [VIDEO] Бродяга Кэнсин бесплатно русская версия torrent активатор

Статистика раздачи
Размер:  561 MB   |    Зарегистрирован:  2 года 6 месяцев   |    .torrent скачан:  16 раз   |   
Раздают:  1  
   
загрузка...
 
Автор Сообщение

Galfimbul

avatar Galfimbul



Бродяга Кэнсин (Кеншин) / Rurouni Kenshin: Meiji Kenkaku Roman Tan (Romantan) / Samurai X

Год выпуска: 2012
Страна: Япония
Жанр: боевик, драма, история
Продолжительность: 2:14:26
Перевод: [Русский] Любительский (Многоголосый, закадровый) AniFilm (MVO)
Cубтитры: нет
Режиссер: Кейдзи Отомо / Keishi Ohtomo
В ролях: Такеру Сато / Takeru Sato (Kenshin Himura), Эми Такеи / Emi Takei (Kaoru Kamiya), Теруюки Кагава / Teruyuki Kagawa (Kanryu Takeda), Ю Аои / Yu Aoi (Megumi Takani), Йосукэ Эгути / Yosuke Eguchi (Hajime Saito), Мунэтака Аоки / Munetaka Aoki (Sanosuke Sagara), Кёдзи Киккава / Koji Kikkawa (Udo Jine), Такэто Танака / Taketo Tanaka (Yahiko Myojin) и другие .
Описание: Бывший легендарный убийца Кэнсин Химура стал скитальцем самураем, предлагающим помощь и защиту нуждающимся, чтобы искупить свои прошлые поступки. Во время своих скитаний Кэнсин столкнется с Каору Камией. Ее отец открыл школу кэндо в Токио и Каору работает там инструктором. Отношения Кэнсина и Каору начинают развиваться, но Кэнсина по-прежнему преследует его ужасное прошлое…
Релиз группы
Качество:HDRip / [url=...4644784]рип с BDRip 720p[/url] Формат: MP4
Видео кодек: XviD Аудио кодек: AAC Видео: 480x200 AR: 2.40 448 kbps 23.976 fps
Аудио: [Russian] 2ch 48 kHz 128 kbps AniFilm (MVO)

Фильм снят по популярной манге «Rurouni Kenshin», написанной и нарисованной Нобухиро Вацуки, которая печаталась в Weekly Shonen Jump со 2-го сентября 1994 по 4-ое ноября 1999 года.

ОбщееПолное имя : D:\Torrents\Rurouni Kenshin.2012.HDRip.XviD.480x.rip by Frost O.S.mp4Формат : MPEG-4Профиль формата : Base MediaИдентификатор кодека : isomРазмер файла : 561 МбайтПродолжительность : 2 ч. 14 м.Режим общего битрейта : ПеременныйОбщий поток : 584 Кбит/секНазвание фильма : Rurouni Kenshin 2012 HDRip XviD 480x rip by Frost O SЖанр : ActionТип содержимого : Short FilmДата кодирования : UTC 2015-12-27 09:06:20Дата пометки : UTC 2015-12-27 09:06:53Программа кодирования : MkvToMp4 version: 0.224 (x64)Обложка : YesПримечание : rip by Frost O.SLongDescription : Бывший легендарный убийца Кэнсин Химура стал скитальцем самураем, предлагающим помощь и защиту нуждающимся, чтобы искупить свои прошлые поступки. Во время своих скитаний Кэнсин столкнется с Каору Камией. Ее отец открыл школу кэндо в Токио и Каору работает там инструктором. Отношения Кэнсина и Каору начинают развиваться, но Кэнсина по-прежнему преследует его ужасное прошлое…

ВидеоИдентификатор : 1Формат : MPEG-4 VisualПрофиль формата : Advanced [email protected]Параметр BVOP формата : ДаПараметр QPel формата : НетПараметр GMC формата : Без точки переходаПараметр матрицы формата : ВыборочнаяИдентификатор кодека : 20Продолжительность : 2 ч. 14 м.Вид битрейта : ПеременныйБитрейт : 448 Кбит/секМаксимальный битрейт : 2612 Кбит/секШирина : 480 пикселейВысота : 200 пикселейСоотношение сторон : 2,40:1Режим частоты кадров : ПостоянныйЧастота кадров : 23,976 кадра/секЦветовое пространство : YUVСубдискретизация насыщенности : 4:2:0Битовая глубина : 8 битТип развёртки : ПрогрессивнаяМетод сжатия : С потерямиБит/(Пиксели*Кадры) : 0.195Размер потока : 431 Мбайт (77%)Библиотека кодирования : XviD 73Язык : EnglishДата пометки : UTC 2015-12-27 09:06:26

АудиоИдентификатор : 2Формат : AACФормат/Информация : Advanced Audio CodecПрофиль формата : LCИдентификатор кодека : 40Продолжительность : 2 ч. 14 м.Вид битрейта : ПеременныйБитрейт : 128 Кбит/секМаксимальный битрейт : 135 Кбит/секКаналы : 2 каналаРасположение каналов : Front: L RЧастота : 48,0 КГцМетод сжатия : С потерямиРазмер потока : 123 Мбайт (22%)Заголовок : AniFilm _MVO_ / AniFilm _MVO_Язык : RussianДата кодирования : UTC 2015-12-27 09:06:23Дата пометки : UTC 2015-12-27 09:06:26


Трекер:  [ 27-Дек-2015 16:00 ]

  

Скачать .torrent

Размер .torrent файла 11 KB


Размер: 561 MB
Хэш (hash) релиза: 070762ef8b439d92d3d724aa1a26cb1e6d329dd8

Еще никто не оставлял запись к записи скачать торрент [VIDEO] Бродяга Кэнсин . Будь первым!

!Обратная связь