El Chapo | Californication | Muovete il culo!

Скачать через торрент [VIDEO] Одна миллиардная доля Parts Per Billion бесплатно русская версия torrent активатор

Статистика раздачи
Размер:  1.82 GB   |    Зарегистрирован:  2 года 6 месяцев   |    .torrent скачан:  12 раз   |   
Раздают:  1  
   
загрузка...
 
Автор Сообщение

Galfimbul

avatar Galfimbul


Одна миллиардная доля / Parts Per Billion«Каков шанс пережить Апокалипсис»
Год выпуска: 2014
Оригинальное название: Parts Per Billion
Страна: США
Жанр: фантастика, драма, мелодрама
Возраст: 16+

Режиссер: Брайан Хориути

В ролях: Розарио Доусон, Джош Хартнетт, Тереза Палмер, Алексис Бледел, Пенн Бэджли, Джина Роулэндс, Фрэнк Ланджелла, Конор Лесли, Хилл Харпер, Нед Вон

Описание: Юные влюбленные Анна и Эрик, пожилые супруги Эстер и Энди, не так давно ставшие мужем и женой Лен и Миа — их жизнь состояла из повседневных мелочей и большой любви, из страсти и нежности, из ревности и верности. Кто-то из них думал о завтрашнем дне с тревогой, а кто-то с надеждой на счастье. Но завтра для них, как и для миллионов людей, может не наступить никогда. В войне на Ближнем Востоке одна из сторон применила бактериологическое оружие, смертоносное облако накрыло всю Европу и уже приблизилось к восточному побережью Соединенных Штатов. Мир оказался на грани вымирания: достаточно нескольких вдохов зараженного воздуха, концентрация вирусов в котором один на миллиард, — и конец неминуем.

Продолжительность: 01:38:36
Перевод: Профессиональный многоголосый [Лицензия]
Оригинальная дорожка: нет

Автор рипа:

Качество видео: BDRip Исходник: Blu-Ray Remux (1080p) Формат: mp4
Видео кодек: MPEG-4 AVC Аудио кодек: AAC
Видео: 1280x688 at 23.976 fps, AVC at 2 500 kbps avg, 0.118 bit/pixel
Аудио №1 Rus: 48.0 KHz, AAC, 2 ch, CBR, 128.0 Kbps
Субтитры: нет
Навигация по главам: нет
GeneralComplete name : D:\VideoRip\Odna_milliardnaya_dolya.2014_KinoGadget.mp4Format : MPEG-4Format profile : Base MediaCodec ID : isomFile size : 1.82 GiBDuration : 1h 38mnOverall bit rate mode : VariableOverall bit rate : 2 636 KbpsMovie name : Одна миллиардная доляPerformer : Брайан ХориутиGenre : Drama, RomanceContentType : Short FilmRecorded date : 2014Encoded date : UTC 2015-12-27 13:47:07Tagged date : UTC 2015-12-27 13:53:33Cover : YesContentRating : mpaa|R|400|

LongDescription : Юные влюбленные Анна и Эрик, пожилые супруги Эстер и Энди, не так давно ставшие мужем и женой Лен и Миа — их жизнь состояла из повседневных мелочей и большой любви, из страсти и нежности, из ревности и верности. Кто-то из них думал о завтрашнем дне с тревогой, а кто-то с надеждой на счастье. Но завтра для них, как и для миллионов людей, может не наступить никогда.HDVideo : Yes

VideoID : 1Format : AVCFormat/Info : Advanced Video CodecFormat profile : [email protected] settings, CABAC : YesFormat settings, ReFrames : 8 framesCodec ID : avc1Codec ID/Info : Advanced Video CodingDuration : 1h 38mnBit rate : 2 500 KbpsMaximum bit rate : 31.5 MbpsWidth : 1 280 pixelsHeight : 688 pixelsDisplay aspect ratio : 1.85:1Frame rate mode : ConstantFrame rate : 23.976 fpsColor space : YUVChroma subsampling : 4:2:0Bit depth : 8 bitsScan type : ProgressiveBits/(Pixel*Frame) : 0.118Stream size : 1.72 GiB (95%)Writing library : x264 core 146 r2538 121396cEncoding settings : cabac=1 / ref=8 / deblock=1:-1:-1 / analyse=0x3:0x133 / me=umh / subme=7 / psy=1 / psy_rd=1.00:0.00 / mixed_ref=1 / me_range=16 / chroma_me=1 / trellis=2 / 8x8dct=1 / cqm=0 / deadzone=21,11 / fast_pskip=1 / chroma_qp_offset=-2 / threads=3 / lookahead_threads=1 / sliced_threads=0 / nr=0 / decimate=1 / interlaced=0 / bluray_compat=0 / constrained_intra=0 / bframes=3 / b_pyramid=2 / b_adapt=2 / b_bias=0 / direct=3 / weightb=1 / open_gop=0 / weightp=2 / keyint=240 / keyint_min=23 / scenecut=40 / intra_refresh=0 / rc_lookahead=60 / rc=2pass / mbtree=1 / bitrate=2500 / ratetol=1.0 / qcomp=0.60 / qpmin=0 / qpmax=69 / qpstep=4 / cplxblur=20.0 / qblur=0.5 / ip_ratio=1.40 / aq=1:1.00Language : EnglishEncoded date : UTC 2015-12-27 13:38:41Tagged date : UTC 2015-12-27 13:48:27

AudioID : 2Format : AACFormat/Info : Advanced Audio CodecFormat profile : LCCodec ID : 40Duration : 1h 38mnBit rate mode : VariableBit rate : 128 KbpsMaximum bit rate : 135 KbpsChannel count : 2 channelsChannel positions : Front: L RSampling rate : 48.0 KHzCompression mode : LossyStream size : 90.3 MiB (5%)Language : RussianEncoded date : UTC 2015-12-27 13:39:10Tagged date : UTC 2015-12-27 13:48:27
[url=...39840292] [/url]

Трекер:  [ 27-Дек-2015 15:30 ]

  

Скачать .torrent

Размер .torrent файла 18 KB


Размер: 1.82 GB
Хэш (hash) релиза: 4b2f2ca6e778b7ffac02f331c0376744bbbff2be

Торренты, похожие на [VIDEO] Одна миллиардная доля Parts Per Billion скачать торрент

Форум Название Автор Размер S L Добавлен
Видео (Фильмы/Клипы) ·· [VIDEO] Одна миллиардная доля / Parts Per Billion (Брайан Хориути / Brian Horiuchi) [2014, фантастика, HDRip] [MP4, 960x] MVO Galfimbul 880409455840 MB 0 0 1418069143

23:05

8-Дек-14

Еще никто не оставлял запись к записи скачать торрент [VIDEO] Одна миллиардная доля Parts Per Billion . Будь первым!

!Обратная связь