Bookmark This Torrent | 47 Meters Down (2017) Hindi Dubbing Full Movie HD 550 MB | Chapter 197

Скачать через торрент [VIDEO] Немецкий страх German Angst бесплатно русская версия torrent активатор

Статистика раздачи
Размер:  2.05 GB   |    Зарегистрирован:  2 года 6 месяцев   |    .torrent скачан:  17 раз   |   
Раздают:  1  
   
загрузка...
 
Автор Сообщение

Galfimbul

avatar Galfimbul


Немецкий страх / German Angst«Three German tales of love, sex and death in Berlin»
Год выпуска: 2015
Оригинальное название: German Angst
Страна: Германия
Жанр: ужасы, фэнтези, боевик, детектив
Возраст: 18+

Режиссер: Йорг Буттгерайт, Михал Козаковски, Андреас Маршалл

В ролях: Лола Гэйв, Аксель Хольст, Михаэль Зеннер, Лила Лорэйн, Муки, Андреас Пейп, Маттан Харрис, Анника Штраус, Дэнис Лайонс, Мартина Шён-Радунски

Описание: В первом эпизоде фильма-антологии, носящем название «Final Girl», рассказывается о судьбе молодой женщины, живущей в центре Берлина. Во втором — »Alraune», повествуется о секс-клубе, в котором используют препарат с ужасными побочными эффектами. Третий эпизод, под названием «Make a Wish», расскажет о непростой судьбе глухих героев, попавшихся на глаза банде садистов.

Продолжительность: 01:51:18
Перевод: Любительский двухголосый (2D)
Оригинальная дорожка: нет

Автор рипа:

Качество видео: BDRip Исходник: Blu-Ray Remux (1080p) Формат: mp4
Видео кодек: MPEG-4 AVC Аудио кодек: AAC
Видео: 1280x536 at 24.000 fps, AVC at 2 500 kbps avg, 0.152 bit/pixel
Аудио №1 Rus: 48.0 KHz, AAC, 2 ch, CBR, 128.0 Kbps
Субтитры: Нет
Навигация по главам: нет
General
Complete name : E:\Nemeckij_strax.2015_KinoGadget.mp4
Format : MPEG-4
Format profile : Base Media
Codec ID : isom
File size : 2.05 GiB
Duration : 1h 51mn
Overall bit rate mode : Variable
Overall bit rate : 2 633 Kbps
Movie name : Немецкий страх
Performer : Йорг Буттгерайт, Михал Козаковски, Андреас Маршалл
Genre : Action, Horror
ContentType : Short Film
Recorded date : 2015
Encoded date : UTC 2015-12-27 12:00:19
Tagged date : UTC 2015-12-27 12:11:54
Cover : Yes
ContentRating : mpaa|R|400|

LongDescription : В первом эпизоде фильма-антологии, носящем название «Final Girl», рассказывается о судьбе молодой женщины, живущей в центре Берлина. Во втором — »Alraune», повествуется о секс-клубе, в котором используют препарат с ужасными побочными эффектами. Третий эпизод, под названием «Make a Wish», расскажет о непростой судьбе глухих героев, попавшихся на глаза банде садистов.
HDVideo : Yes

Video
ID : 1
Format : AVC
Format/Info : Advanced Video Codec
Format profile : [email protected]
Format settings, CABAC : Yes
Format settings, ReFrames : 11 frames
Codec ID : avc1
Codec ID/Info : Advanced Video Coding
Duration : 1h 51mn
Bit rate : 2 500 Kbps
Maximum bit rate : 13.5 Mbps
Width : 1 280 pixels
Height : 536 pixels
Display aspect ratio : 2.40:1
Frame rate mode : Constant
Frame rate : 24.000 fps
Color space : YUV
Chroma subsampling : 4:2:0
Bit depth : 8 bits
Scan type : Progressive
Bits/(Pixel*Frame) : 0.152
Stream size : 1.94 GiB (95%)
Writing library : x264 core 148 r2638 7599210
Encoding settings : cabac=1 / ref=11 / deblock=1:-1:-1 / analyse=0x3:0x133 / me=umh / subme=9 / psy=1 / psy_rd=1.00:0.00 / mixed_ref=1 / me_range=32 / chroma_me=1 / trellis=2 / 8x8dct=1 / cqm=0 / deadzone=21,11 / fast_pskip=1 / chroma_qp_offset=-2 / threads=3 / lookahead_threads=1 / sliced_threads=0 / nr=0 / decimate=1 / interlaced=0 / bluray_compat=0 / constrained_intra=0 / bframes=8 / b_pyramid=2 / b_adapt=2 / b_bias=0 / direct=3 / weightb=1 / open_gop=0 / weightp=2 / keyint=240 / keyint_min=24 / scenecut=40 / intra_refresh=0 / rc_lookahead=60 / rc=2pass / mbtree=1 / bitrate=2500 / ratetol=1.0 / qcomp=0.60 / qpmin=0 / qpmax=69 / qpstep=4 / cplxblur=20.0 / qblur=0.5 / ip_ratio=1.40 / aq=1:1.00
Language : English
Encoded date : UTC 2015-12-27 11:48:02
Tagged date : UTC 2015-12-27 12:01:46

Audio
ID : 2
Format : AAC
Format/Info : Advanced Audio Codec
Format profile : LC
Codec ID : 40
Duration : 1h 51mn
Bit rate mode : Variable
Bit rate : 128 Kbps
Maximum bit rate : 130 Kbps
Channel count : 2 channels
Channel positions : Front: L R
Sampling rate : 48.0 KHz
Compression mode : Lossy
Stream size : 102 MiB (5%)
Language : Russian
Encoded date : UTC 2015-12-27 11:48:43
Tagged date : UTC 2015-12-27 12:01:46
[url=...39840292] [/url]

Трекер:  [ 27-Дек-2015 15:00 ]

  

Скачать .torrent

Размер .torrent файла 10 KB


Размер: 2.05 GB
Хэш (hash) релиза: fb9c419657db74efbfa86790ea3447353009c78d

Торренты, похожие на [VIDEO] Немецкий страх German Angst скачать торрент

Форум Название Автор Размер S L Добавлен
Видео (Фильмы/Клипы) ·· [VIDEO] Немецкий страх / German Angst (Йорг Буттгерайт / Jörg Buttgereit, Михал Козаковски / Michal Kosakowski, Андреас Маршалл / Andreas Marschall) [2015, Германия, ужасы, фэнтези, боевик, детектив, HDRip][MP4, 480x] DVO Galfimbul 538197712513 MB 0 0 1448631335

16:35

27-Ноя-15

Еще никто не оставлял запись к записи скачать торрент [VIDEO] Немецкий страх German Angst . Будь первым!

!Обратная связь