Lemale Et Hahalal | Free Episode Download | view all

Скачать через торрент [VIDEO] Мисс Медоуз Miss Meadows бесплатно русская версия torrent активатор

Статистика раздачи
Размер:  1.55 GB   |    Зарегистрирован:  2 года 6 месяцев   |    .torrent скачан:  15 раз   |   
Раздают:  1  
   
загрузка...
 
Автор Сообщение

Galfimbul

avatar Galfimbul


Мисс Медоуз / Miss Meadows«She doesn't play well with others»
Год выпуска: 2014
Оригинальное название: Miss Meadows
Страна: США
Жанр: триллер, драма
Возраст: 16+

Режиссер: Карен Ли Хопкинс

В ролях: Кэти Холмс, Джеймс Бэдж Дэйл, Каллэн Мулвей, Стефен Бишоп, Тайлер Корбет, Сайда Аррика Экулона, Милли Хопкинс, Джеймс Хеберт, Ава Колкер, Шарлотта Лабади

Описание: История об учителе начальной школы, который в тайне является ярым борцом с преступностью.

Продолжительность: 01:24:07
Перевод: Профессиональный многоголосый
Оригинальная дорожка: нет

Автор рипа:

Качество видео: BDRip Исходник: Blu-Ray (1080p) Формат: mp4
Видео кодек: MPEG-4 AVC Аудио кодек: AAC
Видео: 1280x720 at 25.000 fps, AVC at 2 500 kbps avg, 0.109 bit/pixel
Аудио №1 Rus: 48.0 KHz, AAC, 2 ch, CBR, 128.0 Kbps
Субтитры: нет
Навигация по главам: нет
GeneralComplete name : E:\Miss_medouz.2014_KinoGadget.mp4Format : MPEG-4Format profile : Base MediaCodec ID : isomFile size : 1.55 GiBDuration : 1h 24mnOverall bit rate mode : VariableOverall bit rate : 2 635 KbpsMovie name : Мисс МедоузPerformer : Карен Ли ХопкинсGenre : Drama, ThrillerContentType : Short FilmRecorded date : 2014Encoded date : UTC 2015-12-27 12:47:15Tagged date : UTC 2015-12-27 12:55:03Cover : Yes

LongDescription : История об учителе начальной школы, который в тайне является ярым борцом с преступностью.HDVideo : Yes

VideoID : 1Format : AVCFormat/Info : Advanced Video CodecFormat profile : [email protected] settings, CABAC : YesFormat settings, ReFrames : 9 framesCodec ID : avc1Codec ID/Info : Advanced Video CodingDuration : 1h 24mnBit rate : 2 500 KbpsMaximum bit rate : 13.6 MbpsWidth : 1 280 pixelsHeight : 720 pixelsDisplay aspect ratio : 16:9Frame rate mode : ConstantFrame rate : 25.000 fpsColor space : YUVChroma subsampling : 4:2:0Bit depth : 8 bitsScan type : ProgressiveBits/(Pixel*Frame) : 0.109Stream size : 1.47 GiB (95%)Writing library : x264 core 146 r2538 121396cEncoding settings : cabac=1 / ref=9 / deblock=1:-1:-1 / analyse=0x3:0x133 / me=umh / subme=9 / psy=1 / psy_rd=1.00:0.00 / mixed_ref=1 / me_range=32 / chroma_me=1 / trellis=2 / 8x8dct=1 / cqm=0 / deadzone=21,11 / fast_pskip=1 / chroma_qp_offset=-2 / threads=3 / lookahead_threads=1 / sliced_threads=0 / nr=0 / decimate=1 / interlaced=0 / bluray_compat=0 / constrained_intra=0 / bframes=8 / b_pyramid=2 / b_adapt=2 / b_bias=0 / direct=3 / weightb=1 / open_gop=0 / weightp=2 / keyint=250 / keyint_min=25 / scenecut=40 / intra_refresh=0 / rc_lookahead=60 / rc=2pass / mbtree=1 / bitrate=2500 / ratetol=1.0 / qcomp=0.60 / qpmin=0 / qpmax=69 / qpstep=4 / cplxblur=20.0 / qblur=0.5 / ip_ratio=1.40 / aq=1:1.00Language : EnglishEncoded date : UTC 2015-12-27 12:28:47Tagged date : UTC 2015-12-27 12:48:43

AudioID : 2Format : AACFormat/Info : Advanced Audio CodecFormat profile : LCCodec ID : 40Duration : 1h 24mnBit rate mode : VariableBit rate : 128 KbpsMaximum bit rate : 134 KbpsChannel count : 2 channelsChannel positions : Front: L RSampling rate : 48.0 KHzCompression mode : LossyStream size : 77.0 MiB (5%)Language : RussianEncoded date : UTC 2015-12-27 12:29:04Tagged date : UTC 2015-12-27 12:48:43
[url=...39840292] [/url]

Трекер:  [ 27-Дек-2015 15:00 ]

  

Скачать .torrent

Размер .torrent файла 16 KB


Размер: 1.55 GB
Хэш (hash) релиза: 7e46c065adcca47c0b8e0cb6fb2ccf474e0f84d8

Торренты, похожие на [VIDEO] Мисс Медоуз Miss Meadows скачать торрент

Форум Название Автор Размер S L Добавлен
Видео (Фильмы/Клипы) ·· [VIDEO] Мисс Медоуз / Miss Meadows (Карен Ли Хопкинс / Karen Leigh Hopkins) [2014, драма, триллер, HDRip] [MP4, 960x] MVO Galfimbul 960268395916 MB 0 0 1427750712

00:25

31-Мар-15

Еще никто не оставлял запись к записи скачать торрент [VIDEO] Мисс Медоуз Miss Meadows . Будь первым!

!Обратная связь