Ioan Hefin | Adventure | In The Flesh

Скачать через торрент [VIDEO] Ускорение Momentum бесплатно русская версия torrent активатор

Статистика раздачи
Размер:  1.67 GB   |    Зарегистрирован:  2 года 5 месяцев   |    .torrent скачан:  36 раз   |   
Раздают:  1  
   
загрузка...
 
Автор Сообщение

Galfimbul

avatar Galfimbul


Ускорение / Momentum

Год выпуска: 2015
Оригинальное название: Momentum
Страна: ЮАР, США
Жанр: боевик, триллер
Возраст: 16+

Режиссер: Стивен С. Кампанелли

В ролях: Ольга Куриленко, Морган Фримен, Джеймс Пьюрфой, Дженна Сарас, Ли-Энн Саммерс, Сабина Палфи, Лиза Леонард, Мэриэн Фризелл, Эбби Уэйим, Карл Танинг, Ли Равив, Дилан Эди, Шелли Николь, Эйдан Уайток, Скот Купер, Грант Робертс, Ричард Лотиан, Колин Мосс, Дэниэл Фокс, Джо Ваз

Описание: Алекс, опытная воровка, соглашается совершить свое последнее ограбление… Но все идет не по плану. Теперь ей — красивой, сильной и безжалостной femme fatale — угрожает опасность. И неудачное ограбление — не единственная проблема. Она перешла дорогу секретному международному синдикату, который ищет нечто более ценное, чем бриллианты. С этого момента для Алекс единственный способ спастись — бежать. И как можно быстрее!

Продолжительность: 01:32:09
Перевод: Дублированный (лицензия)
Оригинальная дорожка: нет

Автор рипа:

Качество видео: BDRip Исходник: Blu-Ray (1080i) Формат: mp4
Видео кодек: MPEG-4 AVC Аудио кодек: AAC
Видео: 1280x536 at 25.000 fps, AVC at 2 460 kbps avg, 0.143 bit/pixel
Аудио №1 Rus: 48.0 KHz, AAC, 2 ch, CBR, 128.0 Kbps
Субтитры: нет
Навигация по главам: нет
[26.12.2015 14:43:45] avs [info]: 1280x536p 1:1 @ 25/1 fps (cfr)
[26.12.2015 14:43:45] x264 [info]: using SAR=1/1
[26.12.2015 14:43:45] x264 [info]: using cpu capabilities: MMX2 SSE2Fast SSSE3 Cache64
[26.12.2015 14:43:45] x264 [info]: profile High, level 4.1
[27.12.2015 5:50:09] x264 [info]: frame I:2084 Avg QP:18.33 size: 64149
[27.12.2015 5:50:11] x264 [info]: frame P:41531 Avg QP:21.15 size: 18364
[27.12.2015 5:50:11] x264 [info]: frame B:94631 Avg QP:22.38 size: 8495
[27.12.2015 5:50:11] x264 [info]: consecutive B-frames: 4.1% 6.6% 21.7% 67.6%
[27.12.2015 5:50:11] x264 [info]: mb I I16..4: 9.5% 76.9% 13.6%
[27.12.2015 5:50:11] x264 [info]: mb P I16..4: 3.0% 13.8% 1.2% P16..4: 44.2% 12.5% 9.0% 0.2% 0.0% skip:16.1%
[27.12.2015 5:50:11] x264 [info]: mb B I16..4: 0.3% 1.9% 0.1% B16..8: 42.0% 6.9% 1.3% direct: 5.7% skip:41.9% L0:44.5% L1:50.6% BI: 5.0%
[27.12.2015 5:50:11] x264 [info]: 8x8 transform intra:77.8% inter:74.4%
[27.12.2015 5:50:11] x264 [info]: direct mvs spatial:96.8% temporal:3.2%
[27.12.2015 5:50:11] x264 [info]: coded y,uvDC,uvAC intra: 73.8% 60.6% 20.8% inter: 23.5% 24.0% 0.6%
[27.12.2015 5:50:11] x264 [info]: i16 v,h,dc,p: 27% 18% 7% 48%
[27.12.2015 5:50:11] x264 [info]: i8 v,h,dc,ddl,ddr,vr,hd,vl,hu: 13% 10% 7% 9% 13% 13% 13% 11% 11%
[27.12.2015 5:50:11] x264 [info]: i4 v,h,dc,ddl,ddr,vr,hd,vl,hu: 17% 12% 4% 8% 13% 13% 12% 10% 11%
[27.12.2015 5:50:11] x264 [info]: i8c dc,h,v,p: 32% 34% 21% 13%
[27.12.2015 5:50:11] x264 [info]: Weighted P-Frames: Y:2.5% UV:1.5%
[27.12.2015 5:50:11] x264 [info]: ref P L0: 47.8% 12.2% 18.0% 7.3% 5.2% 3.6% 3.4% 2.0% 0.6% 0.0%
[27.12.2015 5:50:11] x264 [info]: ref B L0: 73.4% 12.6% 6.2% 3.5% 2.2% 1.5% 0.7%
[27.12.2015 5:50:11] x264 [info]: ref B L1: 93.3% 6.7%
[27.12.2015 5:50:11] x264 [info]: kb/s:2459.74
[27.12.2015 5:50:11] encoded 138246 frames, 2.54 fps, 2459.74 kb/s
GeneralComplete name : E:\Uskorenie.2015_KinoGadget.mp4Format : MPEG-4Format profile : Base MediaCodec ID : isomFile size : 1.67 GiBDuration : 1h 32mnOverall bit rate mode : VariableOverall bit rate : 2 596 KbpsMovie name : УскорениеPerformer : Стивен С. КампанеллиGenre : Action, ThrillerContentType : Short FilmRecorded date : 2015Encoded date : UTC 2015-12-27 02:50:20Tagged date : UTC 2015-12-27 06:39:52Cover : Yes

LongDescription : Алекс, опытная воровка, соглашается совершить свое последнее ограбление… Но все идет не по плану. Теперь ей — красивой, сильной и безжалостной femme fatale — угрожает опасность. И неудачное ограбление — не единственная проблема. Она перешла дорогу секретному международному синдикату, который ищет нечто более ценное, чем бриллианты. С этого момента для Алекс единственный способ спастись — бежать. И как можно быстрееHDVideo : Yes

VideoID : 1Format : AVCFormat/Info : Advanced Video CodecFormat profile : [email protected] settings, CABAC : YesFormat settings, ReFrames : 8 framesCodec ID : avc1Codec ID/Info : Advanced Video CodingDuration : 1h 32mnBit rate : 2 460 KbpsMaximum bit rate : 11.3 MbpsWidth : 1 280 pixelsHeight : 536 pixelsDisplay aspect ratio : 2.40:1Frame rate mode : ConstantFrame rate : 25.000 fpsColor space : YUVChroma subsampling : 4:2:0Bit depth : 8 bitsScan type : ProgressiveBits/(Pixel*Frame) : 0.143Stream size : 1.58 GiB (95%)Writing library : x264 core 148 r2638 7599210Encoding settings : cabac=1 / ref=8 / deblock=1:-1:-1 / analyse=0x3:0x133 / me=umh / subme=9 / psy=1 / psy_rd=1.00:0.15 / mixed_ref=1 / me_range=16 / chroma_me=1 / trellis=2 / 8x8dct=1 / cqm=0 / deadzone=21,11 / fast_pskip=1 / chroma_qp_offset=-3 / threads=3 / lookahead_threads=1 / sliced_threads=0 / nr=0 / decimate=1 / interlaced=0 / bluray_compat=0 / constrained_intra=0 / bframes=3 / b_pyramid=2 / b_adapt=2 / b_bias=0 / direct=3 / weightb=1 / open_gop=0 / weightp=2 / keyint=250 / keyint_min=25 / scenecut=40 / intra_refresh=0 / rc_lookahead=60 / rc=crf / mbtree=1 / crf=21.0 / qcomp=0.60 / qpmin=0 / qpmax=69 / qpstep=4 / vbv_maxrate=62500 / vbv_bufsize=78125 / crf_max=0.0 / nal_hrd=none / filler=0 / ip_ratio=1.40 / aq=1:1.20Encoded date : UTC 2015-12-27 02:50:20Tagged date : UTC 2015-12-27 02:51:54

AudioID : 2Format : AACFormat/Info : Advanced Audio CodecFormat profile : LCCodec ID : 40Duration : 1h 32mnBit rate mode : VariableBit rate : 128 KbpsMaximum bit rate : 135 KbpsChannel count : 2 channelsChannel positions : Front: L RSampling rate : 48.0 KHzCompression mode : LossyDelay relative to video : 80msStream size : 84.4 MiB (5%)Language : RussianEncoded date : UTC 2015-12-26 11:35:15Tagged date : UTC 2015-12-27 02:51:54
[url=...39840292] [/url]

Трекер:  [ 27-Дек-2015 08:30 ]

  

Скачать .torrent

Размер .torrent файла 17 KB


Размер: 1.67 GB
Хэш (hash) релиза: b107589cd99f07d5a5c72aee98cda22375457d92

Торренты, похожие на [VIDEO] Ускорение Momentum скачать торрент

Форум Название Автор Размер S L Добавлен
Видео (Фильмы/Клипы) ·· [VIDEO] Ускорение / Momentum (Стивен С. Кампанелли / Stephen S. Campanelli) [2015, США, боевик, триллер, WEB-DLRip][MP4, 480x] Dub iTunes Galfimbul 463950363442 MB 0 0 1455349641

10:47

13-Фев-16

Еще никто не оставлял запись к записи скачать торрент [VIDEO] Ускорение Momentum . Будь первым!

!Обратная связь