Once Upon A Time - Season 3 | Le mensonge de ma vie 2015 HD-TV | Всё для Apple

Скачать через торрент [VIDEO] Дама в очках и с ружьем в автомобиле La dame dans lauto avec des lunettes et un fusil бесплатно русская версия torrent активатор

Статистика раздачи
Размер:  1.74 GB   |    Зарегистрирован:  2 года 6 месяцев   |    .torrent скачан:  27 раз   |   
Раздают:  1  
   
загрузка...
 
Автор Сообщение

Galfimbul

avatar Galfimbul


Дама в очках и с ружьем в автомобиле / La dame dans l'auto avec des lunettes et un fusil

Год выпуска: 2015
Оригинальное название: La dame dans l'auto avec des lunettes et un fusil
Страна: Франция, Бельгия
Жанр: триллер
Возраст: 16+

Режиссер: Жоанн Сфар

В ролях: Фрейя Мавор, Бенжамин Биолэй, Элио Джермано, Стэйси Мартин, Тьерри Анкиссе, Сандрин Ларош, Фредерик Этерлинк, Ален Белло, Эдуар Жиар, Франсуа-Доминик Блен, Ноэми Моралес, Лу Ламбрехт, Вера Ван Дорен, Хлои де Гром, Инес Дюбюиссон, Александр фон Сиверс, Оливье Бонжур, Карен Монлук, Бенжамин Рамон, Лорен Джордано, Элео Солет, Якоб Жегвард, Сесиль Дельберге, Кристоф Блэйн, Эгон Ди Матео, Гийом Галло-Манрике, Чарльз Франсуа, Арно Пайффер, Оливье Принц, Стефани Лёкьен, Алин Обадья, Тьерри Буассе

Описание: Она самая прекрасная, самая чувственная, самая импульсивная, самая упрямая, самая незадачливая девушка. Она хотела воплотить мечту и увидеть море, а в результате попала в невероятную переделку. В чужом автомобиле и с трупом в багажнике, скрываясь от полиции и рискуя собственной жизнью, ей осталось только одно — убедить себя в том, что она еще не окончательно сошла с ума, и что она — это она, а не кто-то другой…

Продолжительность: 01:34:49
Перевод: Дублированный (iTunes)
Оригинальная дорожка: нет

Автор рипа:

Качество видео: BDRip Исходник: Blu-Ray Remux (1080p) Формат: mp4
Видео кодек: MPEG-4 AVC Аудио кодек: AAC
Видео: 1280x536 at 24.000 fps, AVC at 2 500 kbps avg, 0.152 bit/pixel
Аудио №1 Rus: 48.0 KHz, AAC, 2 ch, CBR, 128.0 Kbps
Субтитры: нет
Навигация по главам: нет
GeneralComplete name : E:\Dama_v_ochkax_i_s_ruzhem_v_avtomobile.2015_KinoGadget.mp4Format : MPEG-4Format profile : Base MediaCodec ID : isomFile size : 1.74 GiBDuration : 1h 34mnOverall bit rate mode : VariableOverall bit rate : 2 632 KbpsMovie name : Дама в очках и с ружьем в автомобилеPerformer : Жоанн СфарGenre : ThrillerContentType : Short FilmRecorded date : 2015Encoded date : UTC 2015-12-24 09:58:00Tagged date : UTC 2015-12-25 15:03:27Cover : Yes

LongDescription : Она самая прекрасная, самая чувственная, самая импульсивная, самая упрямая, самая незадачливая девушка. Она хотела воплотить мечту и увидеть море, а в результате попала в невероятную переделку. В чужом автомобиле и с трупом в багажнике, скрываясь от полиции и рискуя собственной жизнью, ей осталось только одно — убедить себя в том, что она еще не окончательно сошла с ума, и что она — это она, а не кто-то другой…HDVideo : Yes

VideoID : 1Format : AVCFormat/Info : Advanced Video CodecFormat profile : [email protected] settings, CABAC : YesFormat settings, ReFrames : 11 framesCodec ID : avc1Codec ID/Info : Advanced Video CodingDuration : 1h 34mnBit rate : 2 500 KbpsMaximum bit rate : 18.9 MbpsWidth : 1 280 pixelsHeight : 536 pixelsDisplay aspect ratio : 2.40:1Frame rate mode : ConstantFrame rate : 24.000 fpsColor space : YUVChroma subsampling : 4:2:0Bit depth : 8 bitsScan type : ProgressiveBits/(Pixel*Frame) : 0.152Stream size : 1.65 GiB (95%)Writing library : x264 core 148 r2638 7599210Encoding settings : cabac=1 / ref=11 / deblock=1:-1:-1 / analyse=0x3:0x133 / me=umh / subme=9 / psy=1 / psy_rd=1.00:0.00 / mixed_ref=1 / me_range=32 / chroma_me=1 / trellis=2 / 8x8dct=1 / cqm=0 / deadzone=21,11 / fast_pskip=1 / chroma_qp_offset=-2 / threads=3 / lookahead_threads=1 / sliced_threads=0 / nr=0 / decimate=1 / interlaced=0 / bluray_compat=0 / constrained_intra=0 / bframes=8 / b_pyramid=2 / b_adapt=2 / b_bias=0 / direct=3 / weightb=1 / open_gop=0 / weightp=2 / keyint=240 / keyint_min=24 / scenecut=40 / intra_refresh=0 / rc_lookahead=60 / rc=2pass / mbtree=1 / bitrate=2500 / ratetol=1.0 / qcomp=0.60 / qpmin=0 / qpmax=69 / qpstep=4 / cplxblur=20.0 / qblur=0.5 / ip_ratio=1.40 / aq=1:1.00Encoded date : UTC 2015-12-24 09:58:00Tagged date : UTC 2015-12-24 09:59:37

AudioID : 2Format : AACFormat/Info : Advanced Audio CodecFormat profile : LCCodec ID : 40Duration : 1h 34mnBit rate mode : VariableBit rate : 128 KbpsMaximum bit rate : 134 KbpsChannel count : 2 channelsChannel positions : Front: L RSampling rate : 48.0 KHzCompression mode : LossyDelay relative to video : 83msStream size : 86.8 MiB (5%)Language : RussianEncoded date : UTC 2015-12-23 09:10:11Tagged date : UTC 2015-12-24 09:59:37
[url=...39840292] [/url]

Трекер:  [ 25-Дек-2015 23:30 ]

  

Скачать .torrent

Размер .torrent файла 18 KB


Размер: 1.74 GB
Хэш (hash) релиза: 13475b3c69819b9d7a1f82533388f9045bf81344

Еще никто не оставлял запись к записи скачать торрент [VIDEO] Дама в очках и с ружьем в автомобиле La dame dans lauto avec des lunettes et un fusil . Будь первым!

!Обратная связь