Murder in the First | The Lion Guard | ギャル

Скачать через торрент [VIDEO] Третий лишний 2 бесплатно русская версия torrent активатор

Статистика раздачи
Размер:  2.13 GB   |    Зарегистрирован:  2 года 6 месяцев   |    .torrent скачан:  30 раз   |   
Раздают:  1  
   
загрузка...
 
Автор Сообщение

Galfimbul

avatar Galfimbul


Третий лишний 2 (Расширенная версия) / Ted 2 (Unrated Cut)«Плюшевый беспредельщик возвращается»
Год выпуска: 2015
Оригинальное название: Ted 2
Страна: США
Жанр: комедия
Возраст: 18+

Режиссер: Сет МакФарлейн

В ролях: Марк Уолберг, Сет МакФарлейн, Аманда Сайфред, Джованни Рибизи, Джон Слэттери, Морган Фримен, Джессика Барт, Сэм Дж. Джонс, Патрик Варбертон, Майкл Дорн, Билл Смитрович, Коко Браун, Джон Кэрролл Линч, Рон Кэнада, Лиам Нисон, Дэннис Хэйсбёрт, Патрик Стюарт, Том Брэйди, Джей Лено, Джимми Киммел

Описание: Плюшевый беспредельщик продолжает сводить с ума чопорную интеллигенцию. На этот раз говорящий медвежонок с большим эго и его длинноногая блондинка решили завести ребёнка. Там, где не постаралась природа, на помощь приходят звёздные доноры, городские сумасшедшие и верный друг Джонни. Он только что расстался с Лори и готов к новым авантюрам. Третий здесь совсем не лишний.

Продолжительность: 01:55:32
Перевод: Дублированный (iTunes)
Оригинальная дорожка: нет

Автор рипа:

Качество видео: BDRip Исходник: Blu-Ray Remux (1080p) Формат: mp4
Видео кодек: MPEG-4 AVC Аудио кодек: AAC
Видео: 1280x536 at 23.976 fps, AVC at 2 500 kbps avg, 0.152 bit/pixel
Аудио №1 Rus: 48.0 KHz, AAC, 2 ch, CBR, 128.0 Kbps
Субтитры: нет
Навигация по главам: нет
Озвучивание: Дублированное- iTunes.
PROPER - Полный перевод! Сцены вырезанные цензурой - озвучены Б.Савченко "Hamsterstudio"
GeneralComplete name : E:\Tretij_lishnij_2.2015_KinoGadget.mp4Format : MPEG-4Format profile : Base MediaCodec ID : isomFile size : 2.13 GiBDuration : 1h 55mnOverall bit rate mode : VariableOverall bit rate : 2 635 KbpsMovie name : Третий лишний 2Performer : Сет МакФарлейнGenre : ComedyContentType : Short FilmRecorded date : 2015Encoded date : UTC 2015-12-25 09:40:50Tagged date : UTC 2015-12-25 09:46:41Cover : YesContentRating : mpaa|R|400|

LongDescription : Плюшевый беспредельщик продолжает сводить с ума чопорную интеллигенцию. На этот раз говорящий медвежонок с большим эго и его длинноногая блондинка решили завести ребёнка. Там, где не постаралась природа, на помощь приходят звёздные доноры, городские сумасшедшие и верный друг Джонни. Он только что расстался с Лори и готов к новым авантюрам. Третий здесь совсем не лишний.HDVideo : Yes

VideoID : 1Format : AVCFormat/Info : Advanced Video CodecFormat profile : [email protected] settings, CABAC : YesFormat settings, ReFrames : 11 framesCodec ID : avc1Codec ID/Info : Advanced Video CodingDuration : 1h 55mnBit rate : 2 500 KbpsMaximum bit rate : 13.6 MbpsWidth : 1 280 pixelsHeight : 536 pixelsDisplay aspect ratio : 2.40:1Frame rate mode : ConstantFrame rate : 23.976 fpsColor space : YUVChroma subsampling : 4:2:0Bit depth : 8 bitsScan type : ProgressiveBits/(Pixel*Frame) : 0.152Stream size : 2.02 GiB (95%)Writing library : x264 core 130 r2273 b3065e6Encoding settings : cabac=1 / ref=11 / deblock=1:-2:-1 / analyse=0x3:0x133 / me=umh / subme=9 / psy=1 / psy_rd=1.00:0.10 / mixed_ref=1 / me_range=32 / chroma_me=1 / trellis=2 / 8x8dct=1 / cqm=0 / deadzone=21,11 / fast_pskip=1 / chroma_qp_offset=-3 / threads=3 / lookahead_threads=1 / sliced_threads=0 / nr=0 / decimate=1 / interlaced=0 / bluray_compat=0 / constrained_intra=0 / bframes=6 / b_pyramid=2 / b_adapt=2 / b_bias=0 / direct=3 / weightb=1 / open_gop=0 / weightp=2 / keyint=250 / keyint_min=23 / scenecut=40 / intra_refresh=0 / rc_lookahead=60 / rc=2pass / mbtree=1 / bitrate=2500 / ratetol=1.0 / qcomp=0.60 / qpmin=0 / qpmax=69 / qpstep=4 / cplxblur=20.0 / qblur=0.5 / ip_ratio=1.40 / aq=1:1.00Language : EnglishEncoded date : UTC 2015-12-25 09:28:17Tagged date : UTC 2015-12-25 09:42:33

AudioID : 2Format : AACFormat/Info : Advanced Audio CodecFormat profile : LCCodec ID : 40Duration : 1h 55mnBit rate mode : VariableBit rate : 128 KbpsMaximum bit rate : 135 KbpsChannel count : 2 channelsChannel positions : Front: L RSampling rate : 48.0 KHzCompression mode : LossyStream size : 106 MiB (5%)Language : RussianEncoded date : UTC 2015-12-25 09:27:18Tagged date : UTC 2015-12-25 09:42:33
[url=...39840292] [/url]

Трекер:  [ 25-Дек-2015 12:30 ]

  

Скачать .torrent

Размер .torrent файла 11 KB


Размер: 2.13 GB
Хэш (hash) релиза: 11d3beef8d25b676e3e3ae2f582279208d221e51

Торренты, похожие на [VIDEO] Третий лишний 2 скачать торрент

Форум Название Автор Размер S L Добавлен
Видео (Фильмы/Клипы) ·· [VIDEO] Третий лишний 2 / Ted 2 (Сет МакФарлейн / Seth MacFarlane) [2015, США, комедия, WEB-DLRip][MP4, 480x] Dub iTunes Galfimbul 542744672518 MB 0 0 1447657280

10:01

16-Ноя-15

Еще никто не оставлял запись к записи скачать торрент [VIDEO] Третий лишний 2 . Будь первым!

!Обратная связь