Icon & Logo & Text Effects | Sweet Country | OpenLoad

Скачать через торрент [VIDEO] Фантастическая четверка Fantastic Four бесплатно русская версия torrent активатор

Статистика раздачи
Размер:  1.84 GB   |    Зарегистрирован:  2 года 6 месяцев   |    .torrent скачан:  31 раз   |   
Раздают:  1  
   
загрузка...
 
Автор Сообщение

Galfimbul

avatar Galfimbul


Фантастическая четверка / Fantastic Four«Всё изменится»
Год выпуска: 2015
Оригинальное название: Fantastic Four
Страна: США, Германия, Великобритания, Канада
Жанр: фантастика, боевик, приключения
Возраст: 12+

Режиссер: Джош Транк

В ролях: Майлз Теллер, Майкл Б. Джордан, Кейт Мара, Джейми Белл, Тоби Кеббелл, Рег Э. Кэти, Тим Блэйк Нельсон, Джошуа Монтес, Дэн Кастелланета, Оуэн Джадж

Описание: История о четырех молодых астронавтах, которые отважились на авантюрное путешествие в параллельное измерение для исследования аномальной волны космической энергии. Вернувшись из путешествия, они обнаружили у себя суперспособности, которые навсегда изменили их жизни…

Продолжительность: 01:39:58
Перевод: Дублированный (Лицензия)
Оригинальная дорожка: нет

Автор рипа:

Качество видео: BDRip Исходник: Blu-Ray Remux (1080p) Формат: mp4
Видео кодек: MPEG-4 AVC Аудио кодек: AAC
Видео: 1280x536 at 23.976 fps, AVC at 2 500 kbps avg, 0.152 bit/pixel
Аудио №1 Rus: 48.0 KHz, AAC, 2 ch, CBR, 128.0 Kbps
Субтитры: нет
Навигация по главам: нет
GeneralComplete name : D:\VideoRip\Fantasticheskaya_chetverka.2015_KinoGadget.mp4Format : MPEG-4Format profile : Base MediaCodec ID : isomFile size : 1.84 GiBDuration : 1h 39mnOverall bit rate mode : VariableOverall bit rate : 2 630 KbpsMovie name : Фантастическая четверкаPerformer : Джош ТранкGenre : Action, AdventureContentType : Short FilmRecorded date : 2015Encoded date : UTC 2015-12-25 08:16:56Tagged date : UTC 2015-12-25 08:56:08Cover : YesContentRating : mpaa|PG-13|300|

LongDescription : История о четырех молодых астронавтах, которые отважились на авантюрное путешествие в параллельное измерение для исследования аномальной волны космической энергии. Вернувшись из путешествия, они обнаружили у себя суперспособности, которые навсегда изменили их жизни…HDVideo : Yes

VideoID : 1Format : AVCFormat/Info : Advanced Video CodecFormat profile : [email protected] settings, CABAC : YesFormat settings, ReFrames : 11 framesCodec ID : avc1Codec ID/Info : Advanced Video CodingDuration : 1h 39mnBit rate : 2 500 KbpsMaximum bit rate : 19.5 MbpsWidth : 1 280 pixelsHeight : 536 pixelsDisplay aspect ratio : 2.40:1Frame rate mode : ConstantFrame rate : 23.976 fpsColor space : YUVChroma subsampling : 4:2:0Bit depth : 8 bitsScan type : ProgressiveBits/(Pixel*Frame) : 0.152Stream size : 1.74 GiB (95%)Writing library : x264 core 148 r2638 7599210Encoding settings : cabac=1 / ref=11 / deblock=1:-1:-1 / analyse=0x3:0x133 / me=umh / subme=9 / psy=1 / psy_rd=1.00:0.00 / mixed_ref=1 / me_range=32 / chroma_me=1 / trellis=2 / 8x8dct=1 / cqm=0 / deadzone=21,11 / fast_pskip=1 / chroma_qp_offset=-2 / threads=3 / lookahead_threads=1 / sliced_threads=0 / nr=0 / decimate=1 / interlaced=0 / bluray_compat=0 / constrained_intra=0 / bframes=8 / b_pyramid=2 / b_adapt=2 / b_bias=0 / direct=3 / weightb=1 / open_gop=0 / weightp=2 / keyint=240 / keyint_min=23 / scenecut=40 / intra_refresh=0 / rc_lookahead=60 / rc=2pass / mbtree=1 / bitrate=2500 / ratetol=1.0 / qcomp=0.60 / qpmin=0 / qpmax=69 / qpstep=4 / cplxblur=20.0 / qblur=0.5 / ip_ratio=1.40 / aq=1:1.00Language : EnglishEncoded date : UTC 2015-12-25 08:03:41Tagged date : UTC 2015-12-25 08:19:22

AudioID : 2Format : AACFormat/Info : Advanced Audio CodecFormat profile : LCCodec ID : 40Duration : 1h 39mnBit rate mode : VariableBit rate : 128 KbpsMaximum bit rate : 135 KbpsChannel count : 2 channelsChannel positions : Front: L RSampling rate : 48.0 KHzCompression mode : LossyStream size : 91.5 MiB (5%)Language : RussianEncoded date : UTC 2015-12-25 08:01:39Tagged date : UTC 2015-12-25 08:19:22
[url=...39840292] [/url]

Трекер:  [ 25-Дек-2015 11:30 ]

  

Скачать .torrent

Размер .torrent файла 19 KB


Размер: 1.84 GB
Хэш (hash) релиза: 7a5a5e10a0da2bed6310a86bfc986bd2a2986c9e

Еще никто не оставлял запись к записи скачать торрент [VIDEO] Фантастическая четверка Fantastic Four . Будь первым!

!Обратная связь